Index
# A B C D E F G H I J K L M N O P Q R S T U V W Y Z
Tags
Language
Tags

Featured TV Shows


South Park S24E02

Posted By:
1080p (FullHD) / WEB-DL IMDb
South Park S24E02

South Park S24E02
WEB-DL | MKV | 1920x1080 | English | H264 @ 2561 kbps | AAC @ 126 kbps | 46 min 48 s | 901 MiB
Subtitles: English
Genre: Comedy, Animation


Follows the misadventures of four irreverent grade-schoolers in the quiet, dysfunctional town of South Park, Colorado.

TkTq.mkv (900.6 MB)



General
Unique ID : 302735579548099960635025963754241454043 (0xE3C0C07532E1299BCD28F5334CA4EFDB)
Complete name : ./TkTq.mkv
Format : Matroska
Format version : Version 4 / Version 2
File size : 901 MiB
Duration : 46 min 48 s
Overall bit rate : 2 690 kb/s
Encoded date : UTC 2021-03-11 09:50:40
Writing application : mkvmerge v34.0.0 ('Sight and Seen') 64-bit
Writing library : libebml v1.3.7 + libmatroska v1.5.0

Video
ID : 1
Format : AVC
Format/Info : Advanced Video Codec
Format profile : High@L4
Format settings : CABAC / 4 Ref Frames
Format settings, CABAC : Yes
Format settings, RefFrames : 4 frames
Codec ID : V_MPEG4/ISO/AVC
Duration : 46 min 48 s
Bit rate : 2 561 kb/s
Width : 1 920 pixels
Height : 1 080 pixels
Display aspect ratio : 16:9
Frame rate mode : Constant
Frame rate : 23.976 (23976/1000) FPS
Color space : YUV
Chroma subsampling : 4:2:0
Bit depth : 8 bits
Scan type : Progressive
Bits/(Pixel*Frame) : 0.052
Stream size : 857 MiB (95%)
Default : Yes
Forced : No

Audio
ID : 2
Format : AAC
Format/Info : Advanced Audio Codec
Format profile : LC
Codec ID : A_AAC-2
Duration : 46 min 47 s
Bit rate : 126 kb/s
Channel(s) : 2 channels
Channel positions : Front: L R
Sampling rate : 48.0 kHz
Frame rate : 46.875 FPS (1024 SPF)
Compression mode : Lossy
Delay relative to video : -42 ms
Stream size : 42.3 MiB (5%)
Language : English
Default : Yes
Forced : No

Text #1
ID : 3
Format : UTF-8
Codec ID : S_TEXT/UTF8
Codec ID/Info : UTF-8 Plain Text
Duration : 46 min 35 s
Bit rate : 110 b/s
Count of elements : 1076
Stream size : 37.6 KiB (0%)
Language : English
Default : No
Forced : No

Text #2
ID : 4
Format : UTF-8
Codec ID : S_TEXT/UTF8
Codec ID/Info : UTF-8 Plain Text
Duration : 46 min 43 s
Bit rate : 114 b/s
Count of elements : 1142
Stream size : 39.1 KiB (0%)
Title : SDH
Language : English
Default : No
Forced : No





South Park S24E02


South Park S24E02


South Park S24E02


South Park S24E02


South Park S24E02

All episodes