Index
# A B C D E F G H I J K L M N O P Q R S T U V W Y Z
Tags
Language
Tags

Featured TV Shows


South Park S25E05

Posted By: Tavaz
1080p (FullHD) / WEBRip IMDb
South Park S25E05

South Park S25E05
WEBRip | MKV | 1920x1080 | English | H264 @ 2406 kbps | AAC @ 125 kbps | 22 min 14 s | 403 MiB
Subtitles: English
Genre: Animation, Comedy


Follows the misadventures of four irreverent grade-schoolers in the quiet, dysfunctional town of South Park, Colorado.

b6688a3e234c4e80964b47bde2ae7e51.mkv (403.1 MB)



General
Unique ID : 197423909187803238673225985889684580951 (0x9486763B6D346430653CD0B0E88A6A57)
Complete name : ./b6688a3e234c4e80964b47bde2ae7e51.mkv
Format : Matroska
Format version : Version 4 / Version 2
File size : 403 MiB
Duration : 22 min 14 s
Overall bit rate : 2 534 kb/s
Encoded date : UTC 2022-03-10 09:30:22
Writing application : mkvmerge v31.0.0 ('Dolores In A Shoestand') 64-bit
Writing library : libebml v1.3.6 + libmatroska v1.4.9

Video
ID : 1
Format : AVC
Format/Info : Advanced Video Codec
Format profile : High@L4
Format settings : CABAC / 4 Ref Frames
Format settings, CABAC : Yes
Format settings, RefFrames : 4 frames
Codec ID : V_MPEG4/ISO/AVC
Duration : 22 min 14 s
Bit rate : 2 406 kb/s
Width : 1 920 pixels
Height : 1 080 pixels
Display aspect ratio : 16:9
Frame rate mode : Constant
Frame rate : 23.976 (24000/1001) FPS
Color space : YUV
Chroma subsampling : 4:2:0
Bit depth : 8 bits
Scan type : Progressive
Bits/(Pixel*Frame) : 0.048
Stream size : 383 MiB (95%)
Language : English
Default : Yes
Forced : No

Audio
ID : 2
Format : AAC
Format/Info : Advanced Audio Codec
Format profile : LC
Codec ID : A_AAC-2
Duration : 22 min 14 s
Bit rate : 125 kb/s
Channel(s) : 2 channels
Channel positions : Front: L R
Sampling rate : 48.0 kHz
Frame rate : 46.875 FPS (1024 SPF)
Compression mode : Lossy
Stream size : 19.9 MiB (5%)
Language : English
Default : Yes
Forced : No

Text
ID : 3
Format : UTF-8
Codec ID : S_TEXT/UTF8
Codec ID/Info : UTF-8 Plain Text
Duration : 21 min 33 s
Bit rate : 95 b/s
Count of elements : 480
Stream size : 15.1 KiB (0%)
Language : English
Default : Yes
Forced : No





South Park S25E05


South Park S25E05


South Park S25E05


South Park S25E05


South Park S25E05

All episodes