Featured TV Shows


Speechless S03E22

Posted By: Tavaz
SD / WEBRip IMDb
Speechless S03E22

Speechless S03E22
WEBRip | MKV | 704x396 | English | H264 @ 741 kbps | AAC @ 63 kbps | 21 min 31 s | 124 MiB
Genre: Comedy


Maya DiMeo is a mom on a mission who will do anything for her husband, Jimmy, and kids Ray, Dylan, and JJ, her eldest son with special needs. As Maya fights injustices both real and imagined, the family works to make a new home for themselves and searches for just the right person to give JJ his “voice.”

speechless.s03e22.web.h264-tbs.mkv (124.4 MB)
sample-speechless.s03e22.web.h264-tbs.mkv (5.3 MB)



General
Unique ID : 216779397803124852303054071135339014261 (0xA316317FBF7146F4739F61EE3E57E875)
Complete name : ./speechless.s03e22.web.h264-tbs.mkv
Format : Matroska
Format version : Version 4 / Version 2
File size : 124 MiB
Duration : 21 min 31 s
Overall bit rate : 808 kb/s
Encoded date : UTC 2019-04-13 09:00:15
Writing application : mkvmerge v31.0.0 ('Dolores In A Shoestand') 64-bit
Writing library : libebml v1.3.6 + libmatroska v1.4.9

Video
ID : 1
Format : AVC
Format/Info : Advanced Video Codec
Format profile : High@L3
Format settings : CABAC / 5 Ref Frames
Format settings, CABAC : Yes
Format settings, RefFrames : 5 frames
Codec ID : V_MPEG4/ISO/AVC
Duration : 21 min 31 s
Bit rate : 742 kb/s
Width : 704 pixels
Height : 396 pixels
Display aspect ratio : 16:9
Frame rate mode : Constant
Frame rate : 23.976 (24000/1001) FPS
Color space : YUV
Chroma subsampling : 4:2:0
Bit depth : 8 bits
Scan type : Progressive
Bits/(Pixel*Frame) : 0.111
Stream size : 114 MiB (92%)
Language : English
Default : Yes
Forced : No

Audio
ID : 2
Format : AAC
Format/Info : Advanced Audio Codec
Format profile : HE-AAC / LC
Format settings : Explicit
Codec ID : A_AAC-2
Duration : 21 min 31 s
Bit rate : 64.0 kb/s
Channel(s) : 2 channels
Channel positions : Front: L R
Sampling rate : 48.0 kHz / 24.0 kHz
Frame rate : 23.438 FPS (1024 SPF)
Compression mode : Lossy
Stream size : 9.85 MiB (8%)
Default : Yes
Forced : No





Speechless S03E22


Speechless S03E22


Speechless S03E22


Speechless S03E22


Speechless S03E22

All episodes