Featured TV Shows


Star S02E07

Posted By: Tavaz
720p (HD) / WEBRip IMDb
Star S02E07

Star S02E07
WEBRip | MKV | 1280x720 | French / English | H264 @ 3400 kbps | AAC @ 128 kbps | 42 min 7 s | 1.05 GiB
Subtitles: French
Genre: Drama


Star is a tough-as-nails young woman who came up in the foster care system and decides one day to take control of her destiny. She tracks down her sister, Simone, and her Instagram bestie, Alexandra, and together, the trio journeys to Atlanta with the hope of becoming music superstars.

11ebaf90a7a145ca9faa9e0bf4431b4a.mkv (1.0 GB)



General
Unique ID : 54502108456517413760359942954651888527 (0x2900B969D0BD9FBFA8F33DF94D6E2B8F)
Complete name : ./11ebaf90a7a145ca9faa9e0bf4431b4a.mkv
Format : Matroska
Format version : Version 4 / Version 2
File size : 1.05 GiB
Duration : 42 min 7 s
Overall bit rate : 3 568 kb/s
Encoded date : UTC 2019-12-02 22:13:47
Writing application : mkvmerge v40.0.0 ('Old Town Road + Pony') 64-bit
Writing library : libebml v1.3.9 + libmatroska v1.5.2

Video
ID : 1
Format : AVC
Format/Info : Advanced Video Codec
Format profile : High@L3.1
Format settings : CABAC / 2 Ref Frames
Format settings, CABAC : Yes
Format settings, RefFrames : 2 frames
Format settings, GOP : M=1, N=50
Codec ID : V_MPEG4/ISO/AVC
Duration : 42 min 7 s
Bit rate mode : Constant
Bit rate : 3 400 kb/s
Width : 1 280 pixels
Height : 720 pixels
Display aspect ratio : 16:9
Frame rate mode : Constant
Frame rate : 25.000 FPS
Color space : YUV
Chroma subsampling : 4:2:0
Bit depth : 8 bits
Scan type : Progressive
Bits/(Pixel*Frame) : 0.148
Stream size : 997 MiB (93%)
Default : Yes
Forced : No
Color range : Limited
Color primaries : BT.709
Transfer characteristics : BT.709
Matrix coefficients : BT.709

Audio #1
ID : 2
Format : AAC
Format/Info : Advanced Audio Codec
Format profile : LC
Codec ID : A_AAC-2
Duration : 42 min 7 s
Bit rate : 128 kb/s
Channel(s) : 2 channels
Channel positions : Front: L R
Sampling rate : 48.0 kHz
Frame rate : 46.875 FPS (1024 SPF)
Compression mode : Lossy
Stream size : 38.6 MiB (4%)
Title : French
Language : French
Default : Yes
Forced : No

Audio #2
ID : 3
Format : AAC
Format/Info : Advanced Audio Codec
Format profile : LC
Codec ID : A_AAC-2
Duration : 42 min 7 s
Bit rate : 128 kb/s
Channel(s) : 2 channels
Channel positions : Front: L R
Sampling rate : 48.0 kHz
Frame rate : 46.875 FPS (1024 SPF)
Compression mode : Lossy
Stream size : 38.6 MiB (4%)
Title : English
Language : English
Default : No
Forced : No

Text
ID : 4
Format : UTF-8
Codec ID : S_TEXT/UTF8
Codec ID/Info : UTF-8 Plain Text
Duration : 41 min 59 s
Bit rate : 76 b/s
Count of elements : 687
Stream size : 23.4 KiB (0%)
Title : French
Language : French
Default : No
Forced : No





Star S02E07


Star S02E07


Star S02E07


Star S02E07


Star S02E07

All episodes