Index
# A B C D E F G H I J K L M N O P Q R S T U V W Y Z
Tags
Language
Tags

Featured TV Shows


Star Trek: Discovery S01E09

Posted By: Tavaz
1080p (FullHD) / BDRip IMDb
Star Trek: Discovery S01E09

Star Trek: Discovery S01E09
BluRay Remux | MKV | 1920x1080 | English | H264 @ 20766 kbps | DTS | 46 min 47 s | 8.05 GiB
Subtitles: Français, Deutsch, Suomi, Español, Svenska, Italiano, Nederlands, Dansk, English, 日本語


Follow the voyages of Starfleet on their missions to discover new worlds and new life forms, and one Starfleet officer who must learn that to truly understand all things alien, you must first understand yourself.

Star.Trek.Discovery.S01E09.Into.the.Forest.I.Go.1080p.BluRay.REMUX.AVC.DTS-HD.MA.5.1-EPSiLON.part1.rar (4.2 GB)
Star.Trek.Discovery.S01E09.Into.the.Forest.I.Go.1080p.BluRay.REMUX.AVC.DTS-HD.MA.5.1-EPSiLON.part2.rar (3.9 GB)



General
Unique ID : 65841809032094365311273810652505348793 (0x3188ABD130EF498C614213C198E89AB9)
Complete name : ./eb3ffcf339e74c6fa20b3887ae9460d4.mkv
Format : Matroska
Format version : Version 4 / Version 2
File size : 8.05 GiB
Duration : 46 min 47 s
Overall bit rate mode : Variable
Overall bit rate : 24.6 Mb/s
Movie name : Star Trek: Discovery - S01E09 - Into the Forest I Go
Encoded date : UTC 2018-11-16 12:18:05
Writing application : mkvmerge v28.2.0 ('The Awakening') 64-bit
Writing library : libebml v1.3.6 + libmatroska v1.4.9

Video
ID : 1
Format : AVC
Format/Info : Advanced Video Codec
Format profile : High@L4.1
Format settings : CABAC / 4 Ref Frames
Format settings, CABAC : Yes
Format settings, RefFrames : 4 frames
Codec ID : V_MPEG4/ISO/AVC
Duration : 46 min 47 s
Bit rate mode : Variable
Bit rate : 20.8 Mb/s
Maximum bit rate : 30.0 Mb/s
Width : 1 920 pixels
Height : 1 080 pixels
Display aspect ratio : 16:9
Frame rate mode : Constant
Frame rate : 23.976 (24000/1001) FPS
Color space : YUV
Chroma subsampling : 4:2:0
Bit depth : 8 bits
Scan type : Progressive
Bits/(Pixel*Frame) : 0.418
Stream size : 6.79 GiB (84%)
Title : MPEG-4 AVC Video / 20991 kbps / 1080p / 23.976 fps / 16:9 / High Profile 4.1
Language : English
Default : Yes
Forced : No

Audio
ID : 2
Format : DTS
Format/Info : Digital Theater Systems
Format profile : MA / Core
Mode : 16
Format settings, Endianness : Big
Codec ID : A_DTS
Duration : 46 min 46 s
Bit rate mode : Variable / Constant
Bit rate : 3 544 kb/s / 1 509 kb/s
Channel(s) : 6 channels
Channel positions : Front: L C R, Side: L R, LFE
Sampling rate : 48.0 kHz
Frame rate : 93.750 FPS (512 SPF)
Bit depth : 24 bits
Compression mode : Lossless / Lossy
Stream size : 1.16 GiB (14%)
Title : DTS-HD Master Audio / 5.1 / 48 kHz / 3543 kbps / 24-bit
Language : English
Default : Yes
Forced : No

Text #1
ID : 3
Format : PGS
Codec ID : S_HDMV/PGS
Codec ID/Info : Picture based subtitle format used on BDs/HD-DVDs
Duration : 7 min 49 s
Bit rate : 4 557 b/s
Count of elements : 34
Stream size : 261 KiB (0%)
Title : Forced
Language : English
Default : Yes
Forced : No

Text #2
ID : 4
Format : PGS
Codec ID : S_HDMV/PGS
Codec ID/Info : Picture based subtitle format used on BDs/HD-DVDs
Duration : 45 min 17 s
Bit rate : 35.1 kb/s
Count of elements : 1150
Stream size : 11.4 MiB (0%)
Title : SDH
Language : English
Default : No
Forced : No

Text #3
ID : 5
Format : PGS
Codec ID : S_HDMV/PGS
Codec ID/Info : Picture based subtitle format used on BDs/HD-DVDs
Duration : 45 min 16 s
Bit rate : 28.2 kb/s
Count of elements : 1046
Stream size : 9.14 MiB (0%)
Language : Danish
Default : No
Forced : No

Text #4
ID : 6
Format : PGS
Codec ID : S_HDMV/PGS
Codec ID/Info : Picture based subtitle format used on BDs/HD-DVDs
Duration : 45 min 17 s
Bit rate : 31.1 kb/s
Count of elements : 1012
Stream size : 10.1 MiB (0%)
Language : Dutch
Default : No
Forced : No

Text #5
ID : 7
Format : PGS
Codec ID : S_HDMV/PGS
Codec ID/Info : Picture based subtitle format used on BDs/HD-DVDs
Duration : 45 min 17 s
Bit rate : 31.2 kb/s
Count of elements : 940
Stream size : 10.1 MiB (0%)
Language : Finnish
Default : No
Forced : No

Text #6
ID : 8
Format : PGS
Codec ID : S_HDMV/PGS
Codec ID/Info : Picture based subtitle format used on BDs/HD-DVDs
Duration : 45 min 16 s
Bit rate : 29.3 kb/s
Count of elements : 1084
Stream size : 9.50 MiB (0%)
Language : French
Default : No
Forced : No

Text #7
ID : 9
Format : PGS
Codec ID : S_HDMV/PGS
Codec ID/Info : Picture based subtitle format used on BDs/HD-DVDs
Duration : 45 min 17 s
Bit rate : 32.6 kb/s
Count of elements : 1104
Stream size : 10.6 MiB (0%)
Language : German
Default : No
Forced : No

Text #8
ID : 10
Format : PGS
Codec ID : S_HDMV/PGS
Codec ID/Info : Picture based subtitle format used on BDs/HD-DVDs
Duration : 45 min 16 s
Bit rate : 32.0 kb/s
Count of elements : 1084
Stream size : 10.4 MiB (0%)
Language : Italian
Default : No
Forced : No

Text #9
ID : 11
Format : PGS
Codec ID : S_HDMV/PGS
Codec ID/Info : Picture based subtitle format used on BDs/HD-DVDs
Duration : 46 min 37 s
Bit rate : 26.7 kb/s
Count of elements : 1068
Stream size : 8.90 MiB (0%)
Language : Japanese
Default : No
Forced : No

Text #10
ID : 12
Format : PGS
Codec ID : S_HDMV/PGS
Codec ID/Info : Picture based subtitle format used on BDs/HD-DVDs
Duration : 45 min 17 s
Bit rate : 29.2 kb/s
Count of elements : 1014
Stream size : 9.46 MiB (0%)
Language : Norwegian
Default : No
Forced : No

Text #11
ID : 13
Format : PGS
Codec ID : S_HDMV/PGS
Codec ID/Info : Picture based subtitle format used on BDs/HD-DVDs
Duration : 45 min 16 s
Bit rate : 31.8 kb/s
Count of elements : 1082
Stream size : 10.3 MiB (0%)
Title : Castilian
Language : Spanish
Default : No
Forced : No

Text #12
ID : 14
Format : PGS
Codec ID : S_HDMV/PGS
Codec ID/Info : Picture based subtitle format used on BDs/HD-DVDs
Duration : 45 min 17 s
Bit rate : 29.3 kb/s
Count of elements : 1036
Stream size : 9.49 MiB (0%)
Language : Swedish
Default : No
Forced : No

Menu
00:00:00.000 : en:Chapter 1
00:05:31.081 : en:Chapter 2
00:13:45.408 : en:Chapter 3
00:24:51.615 : en:Chapter 4
00:33:10.363 : en:Chapter 5
00:45:44.909 : en:Chapter 6





Star Trek: Discovery S01E09


Star Trek: Discovery S01E09


Star Trek: Discovery S01E09


Star Trek: Discovery S01E09


Star Trek: Discovery S01E09

All episodes