Index
# A B C D E F G H I J K L M N O P Q R S T U V W Y Z
Tags
Language
Tags

Featured TV Shows


Star Trek: Discovery S01E09

Posted By: Tavaz
720p (HD) / BDRip IMDb
Star Trek: Discovery S01E09

Star Trek: Discovery S01E09
BDRip | MKV | 1280x640 | English | H264 @ 9460 kbps | AC-3 @ 640 kbps | 46 min 47 s | 3.30 GiB
Subtitles: English


Follow the voyages of Starfleet on their missions to discover new worlds and new life forms, and one Starfleet officer who must learn that to truly understand all things alien, you must first understand yourself.

ad6395e5bacec945206f34cb57fe0d3e.mkv (3.3 GB)



General
Unique ID : 281796629286517176845387089907413995066 (0xD4000E811337BC82E6DA1B6973A0CE3A)
Complete name : ./ad6395e5bacec945206f34cb57fe0d3e.mkv
Format : Matroska
Format version : Version 4 / Version 2
File size : 3.30 GiB
Duration : 46 min 47 s
Overall bit rate : 10.1 Mb/s
Movie name : Star.Trek.Discovery.S01E09.Into.the.Forest.I.Go.720p.BluRay.x264-NTb
Encoded date : UTC 2019-10-18 08:12:09
Writing application : mkvmerge v38.0.0 ('The Silent Type') 64-bit
Writing library : libebml v1.3.9 + libmatroska v1.5.2

Video
ID : 1
Format : AVC
Format/Info : Advanced Video Codec
Format profile : High@L4.1
Format settings : CABAC / 10 Ref Frames
Format settings, CABAC : Yes
Format settings, RefFrames : 10 frames
Codec ID : V_MPEG4/ISO/AVC
Duration : 46 min 47 s
Bit rate : 9 461 kb/s
Width : 1 280 pixels
Height : 640 pixels
Display aspect ratio : 2.000
Frame rate mode : Constant
Frame rate : 23.976 (24000/1001) FPS
Color space : YUV
Chroma subsampling : 4:2:0
Bit depth : 8 bits
Scan type : Progressive
Bits/(Pixel*Frame) : 0.482
Stream size : 3.09 GiB (94%)
Title : Star.Trek.Discovery.S01E09.Into.the.Forest.I.Go.720p.BluRay.x264-NTb
Writing library : x264 core 157 r2969 d4099dd
Encoding settings : cabac=1 / ref=10 / deblock=1:-3:-3 / analyse=0x3:0x133 / me=umh / subme=10 / psy=1 / psy_rd=0.95:0.00 / mixed_ref=1 / me_range=32 / chroma_me=1 / trellis=2 / 8x8dct=1 / cqm=0 / deadzone=21,11 / fast_pskip=0 / chroma_qp_offset=-2 / threads=20 / lookahead_threads=3 / sliced_threads=0 / nr=0 / decimate=0 / interlaced=0 / bluray_compat=0 / constrained_intra=0 / bframes=9 / b_pyramid=2 / b_adapt=2 / b_bias=0 / direct=3 / weightb=1 / open_gop=0 / weightp=2 / keyint=240 / keyint_min=23 / scenecut=40 / intra_refresh=0 / rc_lookahead=40 / rc=crf / mbtree=0 / crf=16.8 / qcomp=0.60 / qpmin=0 / qpmax=69 / qpstep=4 / vbv_maxrate=62500 / vbv_bufsize=78125 / crf_max=0.0 / nal_hrd=none / filler=0 / ip_ratio=1.40 / pb_ratio=1.30 / aq=3:0.90
Language : English
Default : Yes
Forced : No

Audio
ID : 2
Format : AC-3
Format/Info : Audio Coding 3
Format settings, Endianness : Big
Codec ID : A_AC3
Duration : 46 min 46 s
Bit rate mode : Constant
Bit rate : 640 kb/s
Channel(s) : 6 channels
Channel positions : Front: L C R, Side: L R, LFE
Sampling rate : 48.0 kHz
Frame rate : 31.250 FPS (1536 SPF)
Bit depth : 16 bits
Compression mode : Lossy
Stream size : 214 MiB (6%)
Title : English DD5.1 @ 640 Kbps
Language : English
Service kind : Complete Main
Default : Yes
Forced : No

Text #1
ID : 3
Format : UTF-8
Codec ID : S_TEXT/UTF8
Codec ID/Info : UTF-8 Plain Text
Duration : 7 min 49 s
Bit rate : 8 b/s
Count of elements : 17
Stream size : 471 Bytes (0%)
Title : Forced
Language : English
Default : Yes
Forced : Yes

Text #2
ID : 4
Format : UTF-8
Codec ID : S_TEXT/UTF8
Codec ID/Info : UTF-8 Plain Text
Duration : 45 min 17 s
Bit rate : 62 b/s
Count of elements : 543
Stream size : 20.7 KiB (0%)
Title : English
Language : English
Default : No
Forced : No

Text #3
ID : 5
Format : UTF-8
Codec ID : S_TEXT/UTF8
Codec ID/Info : UTF-8 Plain Text
Duration : 45 min 17 s
Bit rate : 65 b/s
Count of elements : 575
Stream size : 21.7 KiB (0%)
Title : English (SDH)
Language : English
Default : No
Forced : No

Menu
00:00:00.000 : :Chapter 01
00:05:31.081 : :Chapter 02
00:13:45.408 : :Chapter 03
00:24:51.615 : :Chapter 04
00:33:10.363 : :Chapter 05
00:45:44.909 : :Chapter 06





Star Trek: Discovery S01E09


Star Trek: Discovery S01E09


Star Trek: Discovery S01E09


Star Trek: Discovery S01E09


Star Trek: Discovery S01E09

All episodes