Index
# A B C D E F G H I J K L M N O P Q R S T U V W Y Z
Tags
Language
Tags

Featured TV Shows


Star Trek: Discovery S01E13

Posted By: Tavaz
1080p (FullHD) / WEBRip IMDb
Star Trek: Discovery S01E13

Star Trek: Discovery S01E13
WEB-DL | MKV | 1920x1080 | English | H264 @ 10987 kbps | E-AC-3 @ 640 kbps | 43 min 33 s | 3.54 GiB
Subtitles: English

Ten years before Kirk, Spock, and the Enterprise there was Discovery. Star Trek, one of the most iconic and influential global television franchises, returns 50 years after it first premiered featuring a new ship, new characters and new missions, while embracing the same ideology and hope for the future that inspired a generation of dreamers and doers.

39bbe67fe3354bbdaa00d9b27c2c2d70.mkv (3.5 GB)



General
Unique ID : 250036875820825018079679907173957767303 (0xBC1B59C32DAB5A5583F69CE6F81A1087)
Complete name : ./39bbe67fe3354bbdaa00d9b27c2c2d70.mkv
Format : Matroska
Format version : Version 4 / Version 2
File size : 3.54 GiB
Duration : 43 min 33 s
Overall bit rate mode : Variable
Overall bit rate : 11.6 Mb/s
Encoded date : UTC 2018-01-29 01:02:36
Writing application : mkvmerge v13.0.0 ('The Juggler') 64bit
Writing library : libebml v1.3.4 + libmatroska v1.4.5

Video
ID : 1
Format : AVC
Format/Info : Advanced Video Codec
Format profile : High@L4
Format settings : CABAC / 4 Ref Frames
Format settings, CABAC : Yes
Format settings, RefFrames : 4 frames
Codec ID : V_MPEG4/ISO/AVC
Duration : 43 min 33 s
Bit rate mode : Variable
Bit rate : 11.0 Mb/s
Maximum bit rate : 15.0 Mb/s
Width : 1 920 pixels
Height : 1 080 pixels
Display aspect ratio : 16:9
Frame rate mode : Constant
Frame rate : 23.976 (24000/1001) FPS
Color space : YUV
Chroma subsampling : 4:2:0
Bit depth : 8 bits
Scan type : Progressive
Bits/(Pixel*Frame) : 0.221
Stream size : 3.34 GiB (94%)
Default : Yes
Forced : No
Color range : Limited
Color primaries : BT.709
Transfer characteristics : BT.709
Matrix coefficients : BT.709

Audio
ID : 2
Format : E-AC-3
Format/Info : Enhanced Audio Coding 3
Format settings, Endianness : Big
Codec ID : A_EAC3
Duration : 43 min 33 s
Bit rate mode : Constant
Bit rate : 640 kb/s
Channel(s) : 6 channels
Channel positions : Front: L C R, Side: L R, LFE
Sampling rate : 48.0 kHz
Frame rate : 187.500 FPS (256 SPF)
Compression mode : Lossy
Stream size : 199 MiB (6%)
Language : English
Service kind : Complete Main
Default : Yes
Forced : No

Text #1
ID : 3
Format : UTF-8
Codec ID : S_TEXT/UTF8
Codec ID/Info : UTF-8 Plain Text
Duration : 41 min 44 s
Bit rate : 61 b/s
Count of elements : 628
Stream size : 18.8 KiB (0%)
Language : English
Default : No
Forced : No

Text #2
ID : 4
Format : UTF-8
Codec ID : S_TEXT/UTF8
Codec ID/Info : UTF-8 Plain Text
Duration : 41 min 44 s
Bit rate : 64 b/s
Count of elements : 682
Stream size : 19.6 KiB (0%)
Title : SDH
Language : English
Default : No
Forced : No





Star Trek: Discovery S01E13


Star Trek: Discovery S01E13


Star Trek: Discovery S01E13


Star Trek: Discovery S01E13


Star Trek: Discovery S01E13

All episodes