Index
# A B C D E F G H I J K L M N O P Q R S T U V W Y Z
Tags
Language
Tags

Featured TV Shows


Star Trek: Discovery S01E14

Posted By:
1080p (FullHD) / WEB-DL IMDb
Star Trek: Discovery S01E14

Star Trek: Discovery S01E14
WEB-DL | MKV | 1920x1080 | English | H264 @ 8597 kbps | E-AC-3 @ 640 kbps | 49 min 28 s | 3.19 GiB
Subtitles: English


Follow the voyages of Starfleet on their missions to discover new worlds and new life forms, and one Starfleet officer who must learn that to truly understand all things alien, you must first understand yourself.

1927d5c9664b422ba95a660e163c2585.mkv (3.2 GB)



General
Unique ID : 217654023521591987490209880906237712657 (0xA3BEA3E052E58DD1B2EA3004CCB79911)
Complete name : ./1927d5c9664b422ba95a660e163c2585.mkv
Format : Matroska
Format version : Version 4 / Version 2
File size : 3.19 GiB
Duration : 49 min 28 s
Overall bit rate mode : Variable
Overall bit rate : 9 240 kb/s
Encoded date : UTC 2018-02-05 01:02:24
Writing application : mkvmerge v13.0.0 ('The Juggler') 64bit
Writing library : libebml v1.3.4 + libmatroska v1.4.5

Video
ID : 1
Format : AVC
Format/Info : Advanced Video Codec
Format profile : High@L4
Format settings : CABAC / 4 Ref Frames
Format settings, CABAC : Yes
Format settings, RefFrames : 4 frames
Codec ID : V_MPEG4/ISO/AVC
Duration : 49 min 28 s
Bit rate mode : Variable
Bit rate : 8 598 kb/s
Maximum bit rate : 15.0 Mb/s
Width : 1 920 pixels
Height : 1 080 pixels
Display aspect ratio : 16:9
Frame rate mode : Constant
Frame rate : 23.976 (24000/1001) FPS
Color space : YUV
Chroma subsampling : 4:2:0
Bit depth : 8 bits
Scan type : Progressive
Bits/(Pixel*Frame) : 0.173
Stream size : 2.97 GiB (93%)
Default : Yes
Forced : No
Color range : Limited
Color primaries : BT.709
Transfer characteristics : BT.709
Matrix coefficients : BT.709

Audio
ID : 2
Format : E-AC-3
Format/Info : Enhanced Audio Coding 3
Format settings, Endianness : Big
Codec ID : A_EAC3
Duration : 49 min 28 s
Bit rate mode : Constant
Bit rate : 640 kb/s
Channel(s) : 6 channels
Channel positions : Front: L C R, Side: L R, LFE
Sampling rate : 48.0 kHz
Frame rate : 187.500 FPS (256 SPF)
Compression mode : Lossy
Stream size : 226 MiB (7%)
Language : English
Service kind : Complete Main
Default : Yes
Forced : No

Text #1
ID : 3
Format : UTF-8
Codec ID : S_TEXT/UTF8
Codec ID/Info : UTF-8 Plain Text
Duration : 47 min 38 s
Bit rate : 69 b/s
Count of elements : 805
Stream size : 24.2 KiB (0%)
Language : English
Default : No
Forced : No

Text #2
ID : 4
Format : UTF-8
Codec ID : S_TEXT/UTF8
Codec ID/Info : UTF-8 Plain Text
Duration : 47 min 38 s
Bit rate : 71 b/s
Count of elements : 834
Stream size : 24.8 KiB (0%)
Title : SDH
Language : English
Default : No
Forced : No





Star Trek: Discovery S01E14


Star Trek: Discovery S01E14


Star Trek: Discovery S01E14


Star Trek: Discovery S01E14


Star Trek: Discovery S01E14

All episodes