Index
# A B C D E F G H I J K L M N O P Q R S T U V W Y Z
Tags
Language
Tags

Featured TV Shows


Star Trek: Discovery S02E00

Posted By: Tavaz
720p (HD) / WEBRip IMDb
Star Trek: Discovery S02E00

Star Trek: Discovery S02E00
WEBRip | MKV | 1280x534 | English | H264 @ 1769 kbps | AAC @ 125 kbps | 15 min 35 s | 212 MiB
Subtitles: English

Ten years before Kirk, Spock, and the Enterprise there was Discovery. Star Trek, one of the most iconic and influential global television franchises, returns 50 years after it first premiered featuring a new ship, new characters and new missions, while embracing the same ideology and hope for the future that inspired a generation of dreamers and doers.

339d7d37fd724121b9e5a7212c296397.mkv (211.6 MB)



General
Unique ID : 197741741888497799814783254819293069162 (0x94C3AC9819264D3294E438D35EEB7F6A)
Complete name : ./339d7d37fd724121b9e5a7212c296397.mkv
Format : Matroska
Format version : Version 4 / Version 2
File size : 212 MiB
Duration : 15 min 35 s
Overall bit rate : 1 897 kb/s
Encoded date : UTC 2018-11-11 03:24:07
Writing application : mkvmerge v13.0.0 ('The Juggler') 64bit
Writing library : libebml v1.3.4 + libmatroska v1.4.5

Video
ID : 1
Format : AVC
Format/Info : Advanced Video Codec
Format profile : High@L4.1
Format settings : CABAC / 5 Ref Frames
Format settings, CABAC : Yes
Format settings, RefFrames : 5 frames
Codec ID : V_MPEG4/ISO/AVC
Duration : 15 min 35 s
Bit rate : 1 770 kb/s
Width : 1 280 pixels
Height : 534 pixels
Display aspect ratio : 2.40:1
Frame rate mode : Constant
Frame rate : 23.976 (24000/1001) FPS
Color space : YUV
Chroma subsampling : 4:2:0
Bit depth : 8 bits
Scan type : Progressive
Bits/(Pixel*Frame) : 0.108
Stream size : 197 MiB (93%)
Writing library : x264 core 157 r2935 545de2f
Encoding settings : cabac=1 / ref=5 / deblock=1:-3:-3 / analyse=0x3:0x113 / me=hex / subme=8 / psy=1 / psy_rd=1.00:0.15 / mixed_ref=1 / me_range=16 / chroma_me=1 / trellis=2 / 8x8dct=1 / cqm=0 / deadzone=21,11 / fast_pskip=1 / chroma_qp_offset=-2 / threads=17 / lookahead_threads=2 / sliced_threads=0 / nr=0 / decimate=1 / interlaced=0 / bluray_compat=0 / constrained_intra=0 / bframes=3 / b_pyramid=2 / b_adapt=2 / b_bias=0 / direct=3 / weightb=1 / open_gop=0 / weightp=2 / keyint=240 / keyint_min=23 / scenecut=40 / intra_refresh=0 / rc_lookahead=50 / rc=crf / mbtree=1 / crf=18.0 / qcomp=0.60 / qpmin=0 / qpmax=69 / qpstep=4 / ip_ratio=1.40 / aq=1:0.80
Language : English
Default : Yes
Forced : No
Color range : Limited
Matrix coefficients : BT.709

Audio
ID : 2
Format : AAC
Format/Info : Advanced Audio Codec
Format profile : LC
Codec ID : A_AAC-2
Duration : 15 min 35 s
Bit rate : 125 kb/s
Channel(s) : 2 channels
Channel positions : Front: L R
Sampling rate : 48.0 kHz
Frame rate : 46.875 FPS (1024 SPF)
Compression mode : Lossy
Stream size : 14.0 MiB (7%)
Language : English
Default : Yes
Forced : No

Text
ID : 3
Format : UTF-8
Codec ID : S_TEXT/UTF8
Codec ID/Info : UTF-8 Plain Text
Duration : 13 min 36 s
Bit rate : 79 b/s
Count of elements : 269
Stream size : 7.89 KiB (0%)
Language : English
Default : No
Forced : No





Star Trek: Discovery S02E00


Star Trek: Discovery S02E00


Star Trek: Discovery S02E00


Star Trek: Discovery S02E00


Star Trek: Discovery S02E00

All episodes