Index
# A B C D E F G H I J K L M N O P Q R S T U V W Y Z
Tags
Language
Tags

Featured TV Shows


Star Trek: Discovery S02E04

Posted By:
1080p (FullHD) / WEB-DL IMDb
Star Trek: Discovery S02E04

Star Trek: Discovery S02E04
WEB-DL | MKV | 1920x1080 | English | H264 @ 9253 kbps | E-AC-3 @ 640 kbps | 51 min 47 s | 3.58 GiB
Subtitles: English


Follow the voyages of Starfleet on their missions to discover new worlds and new life forms, and one Starfleet officer who must learn that to truly understand all things alien, you must first understand yourself.

88c3b96882314d7082c3b2692a945abd.mkv (3.6 GB)



General
Unique ID : 64570389737735936615790701651152636785 (0x3093CE01957024E03A4CF2D3E1808B71)
Complete name : ./88c3b96882314d7082c3b2692a945abd.mkv
Format : Matroska
Format version : Version 4 / Version 2
File size : 3.58 GiB
Duration : 51 min 47 s
Overall bit rate : 9 896 kb/s
Encoded date : UTC 2019-02-08 03:25:35
Writing application : mkvmerge v30.1.0 ('Forever And More') 64-bit
Writing library : libebml v1.3.6 + libmatroska v1.4.9

Video
ID : 1
Format : AVC
Format/Info : Advanced Video Codec
Format profile : High@L4
Format settings : CABAC / 4 Ref Frames
Format settings, CABAC : Yes
Format settings, RefFrames : 4 frames
Codec ID : V_MPEG4/ISO/AVC
Duration : 51 min 47 s
Bit rate mode : Constant
Bit rate : 9 254 kb/s
Nominal bit rate : 10 000 kb/s
Width : 1 920 pixels
Height : 1 080 pixels
Display aspect ratio : 16:9
Frame rate mode : Constant
Frame rate : 24.000 FPS
Color space : YUV
Chroma subsampling : 4:2:0
Bit depth : 8 bits
Scan type : Progressive
Bits/(Pixel*Frame) : 0.186
Stream size : 3.35 GiB (94%)
Default : Yes
Forced : No
Color range : Limited
Color primaries : BT.709
Transfer characteristics : BT.709
Matrix coefficients : BT.709

Audio
ID : 2
Format : E-AC-3
Format/Info : Enhanced Audio Coding 3
Format settings, Endianness : Big
Codec ID : A_EAC3
Duration : 51 min 47 s
Bit rate mode : Constant
Bit rate : 640 kb/s
Channel(s) : 6 channels
Channel positions : Front: L C R, Side: L R, LFE
Sampling rate : 48.0 kHz
Frame rate : 187.500 FPS (256 SPF)
Compression mode : Lossy
Stream size : 237 MiB (6%)
Language : English
Service kind : Complete Main
Default : Yes
Forced : No

Text #1
ID : 3
Format : UTF-8
Codec ID : S_TEXT/UTF8
Codec ID/Info : UTF-8 Plain Text
Duration : 50 min 3 s
Bit rate : 82 b/s
Count of elements : 975
Stream size : 30.2 KiB (0%)
Language : English
Default : No
Forced : No

Text #2
ID : 4
Format : UTF-8
Codec ID : S_TEXT/UTF8
Codec ID/Info : UTF-8 Plain Text
Duration : 50 min 3 s
Bit rate : 87 b/s
Count of elements : 1056
Stream size : 32.0 KiB (0%)
Title : SDH
Language : English
Default : No
Forced : No





Star Trek: Discovery S02E04


Star Trek: Discovery S02E04


Star Trek: Discovery S02E04


Star Trek: Discovery S02E04


Star Trek: Discovery S02E04

All episodes