Index
# A B C D E F G H I J K L M N O P Q R S T U V W Y Z
Tags
Language
Tags

Featured TV Shows


Star Trek: Discovery S02E05

Posted By:
720p (HD) / WEB-DL IMDb
Star Trek: Discovery S02E05

Star Trek: Discovery S02E05
WEB-DL | MKV | 1280x720 | English | H264 @ 4814 kbps | E-AC-3 @ 640 kbps | 52 min 28 s | 2.00 GiB
Subtitles: English


Follow the voyages of Starfleet on their missions to discover new worlds and new life forms, and one Starfleet officer who must learn that to truly understand all things alien, you must first understand yourself.

d8d36ac8a96e429983f7fda580817d03.mkv (2.0 GB)



General
Unique ID : 189733444280649711477848535285107036855 (0x8EBD5509B1E792D9A9312D68B4E492B7)
Complete name : ./d8d36ac8a96e429983f7fda580817d03.mkv
Format : Matroska
Format version : Version 4 / Version 2
File size : 2.00 GiB
Duration : 52 min 28 s
Overall bit rate : 5 457 kb/s
Encoded date : UTC 2019-02-15 01:03:58
Writing application : mkvmerge v31.0.0 ('Dolores In A Shoestand') 64-bit
Writing library : libebml v1.3.6 + libmatroska v1.4.9

Video
ID : 1
Format : AVC
Format/Info : Advanced Video Codec
Format profile : High@L3.1
Format settings : CABAC / 4 Ref Frames
Format settings, CABAC : Yes
Format settings, RefFrames : 4 frames
Codec ID : V_MPEG4/ISO/AVC
Duration : 52 min 28 s
Bit rate mode : Constant
Bit rate : 4 815 kb/s
Nominal bit rate : 6 000 kb/s
Width : 1 280 pixels
Height : 720 pixels
Display aspect ratio : 16:9
Frame rate mode : Constant
Frame rate : 24.000 FPS
Color space : YUV
Chroma subsampling : 4:2:0
Bit depth : 8 bits
Scan type : Progressive
Bits/(Pixel*Frame) : 0.218
Stream size : 1.76 GiB (88%)
Default : Yes
Forced : No
Color range : Limited
Color primaries : BT.709
Transfer characteristics : BT.709
Matrix coefficients : BT.709

Audio
ID : 2
Format : E-AC-3
Format/Info : Enhanced Audio Coding 3
Format settings, Endianness : Big
Codec ID : A_EAC3
Duration : 52 min 28 s
Bit rate mode : Constant
Bit rate : 640 kb/s
Channel(s) : 6 channels
Channel positions : Front: L C R, Side: L R, LFE
Sampling rate : 48.0 kHz
Frame rate : 187.500 FPS (256 SPF)
Compression mode : Lossy
Stream size : 240 MiB (12%)
Language : English
Service kind : Complete Main
Default : Yes
Forced : No

Text #1
ID : 3
Format : UTF-8
Codec ID : S_TEXT/UTF8
Codec ID/Info : UTF-8 Plain Text
Duration : 50 min 42 s
Bit rate : 67 b/s
Count of elements : 826
Stream size : 24.9 KiB (0%)
Language : English
Default : No
Forced : No

Text #2
ID : 4
Format : UTF-8
Codec ID : S_TEXT/UTF8
Codec ID/Info : UTF-8 Plain Text
Duration : 50 min 42 s
Bit rate : 72 b/s
Count of elements : 948
Stream size : 27.1 KiB (0%)
Title : SDH
Language : English
Default : No
Forced : No

Menu
00:00:00.000 : en:Studio Logo
00:00:08.000 : en:Previously On
00:01:04.000 : en:Scene 3
00:05:57.000 : en:Title Sequence
00:07:30.000 : en:Scene 5
00:16:01.000 : en:Scene 6
00:28:28.000 : en:Scene 7
00:38:43.000 : en:Scene 8
00:44:35.000 : en:Scene 9
00:50:54.000 : en:Next On
00:51:25.000 : en:End Credits





Star Trek: Discovery S02E05


Star Trek: Discovery S02E05


Star Trek: Discovery S02E05


Star Trek: Discovery S02E05


Star Trek: Discovery S02E05

All episodes