Index
# A B C D E F G H I J K L M N O P Q R S T U V W Y Z
Tags
Language
Tags

Featured TV Shows


Star Trek: Discovery S02E08

Posted By: Tavaz
1080p (FullHD) / WEB-DL IMDb
Star Trek: Discovery S02E08

Star Trek: Discovery S02E08
WEB-DL | MKV | 1920x1080 | English | H264 @ 8659 kbps | E-AC-3 @ 640 kbps | 54 min 50 s | 3.56 GiB
Subtitles: English

Follow the voyages of Starfleet on their missions to discover new worlds and new life forms, and one Starfleet officer who must learn that to truly understand all things alien, you must first understand yourself.

e047951974314e8ab4a61a333de2b728.mkv (3.6 GB)



General
Unique ID : 39384044588920477291127395380824776861 (0x1DA117510D06FED491BAC1E612E2209D)
Complete name : ./e047951974314e8ab4a61a333de2b728.mkv
Format : Matroska
Format version : Version 4 / Version 2
File size : 3.56 GiB
Duration : 54 min 50 s
Overall bit rate : 9 301 kb/s
Encoded date : UTC 2019-03-08 01:09:30
Writing application : mkvmerge v31.0.0 ('Dolores In A Shoestand') 64-bit
Writing library : libebml v1.3.6 + libmatroska v1.4.9

Video
ID : 1
Format : AVC
Format/Info : Advanced Video Codec
Format profile : High@L4
Format settings : CABAC / 4 Ref Frames
Format settings, CABAC : Yes
Format settings, RefFrames : 4 frames
Codec ID : V_MPEG4/ISO/AVC
Duration : 54 min 50 s
Bit rate mode : Constant
Bit rate : 8 659 kb/s
Nominal bit rate : 10 000 kb/s
Width : 1 920 pixels
Height : 1 080 pixels
Display aspect ratio : 16:9
Frame rate mode : Constant
Frame rate : 24.000 FPS
Color space : YUV
Chroma subsampling : 4:2:0
Bit depth : 8 bits
Scan type : Progressive
Bits/(Pixel*Frame) : 0.174
Stream size : 3.32 GiB (93%)
Default : Yes
Forced : No
Color range : Limited
Color primaries : BT.709
Transfer characteristics : BT.709
Matrix coefficients : BT.709

Audio
ID : 2
Format : E-AC-3
Format/Info : Enhanced Audio Coding 3
Format settings, Endianness : Big
Codec ID : A_EAC3
Duration : 54 min 50 s
Bit rate mode : Constant
Bit rate : 640 kb/s
Channel(s) : 6 channels
Channel positions : Front: L C R, Side: L R, LFE
Sampling rate : 48.0 kHz
Frame rate : 187.500 FPS (256 SPF)
Compression mode : Lossy
Stream size : 251 MiB (7%)
Language : English
Service kind : Complete Main
Default : Yes
Forced : No

Text #1
ID : 3
Format : UTF-8
Codec ID : S_TEXT/UTF8
Codec ID/Info : UTF-8 Plain Text
Duration : 52 min 47 s
Bit rate : 71 b/s
Count of elements : 899
Stream size : 27.7 KiB (0%)
Language : English
Default : No
Forced : No

Text #2
ID : 4
Format : UTF-8
Codec ID : S_TEXT/UTF8
Codec ID/Info : UTF-8 Plain Text
Duration : 52 min 47 s
Bit rate : 74 b/s
Count of elements : 956
Stream size : 28.7 KiB (0%)
Title : SDH
Language : English
Default : No
Forced : No

Menu
00:00:00.000 : en:Studio Logo
00:00:07.000 : en:Previously On
00:07:02.000 : en:Title Sequence
00:08:36.000 : en:Scene 4
00:18:56.000 : en:Scene 5
00:21:30.000 : en:Scene 6
00:33:22.000 : en:Scene 7
00:42:31.000 : en:Scene 8
00:53:15.000 : en:Next On
00:53:49.000 : en:End Credits





Star Trek: Discovery S02E08


Star Trek: Discovery S02E08


Star Trek: Discovery S02E08


Star Trek: Discovery S02E08


Star Trek: Discovery S02E08

All episodes