Index
# A B C D E F G H I J K L M N O P Q R S T U V W Y Z
Tags
Language
Tags

Featured TV Shows


Star Trek: Discovery S02E11

Posted By:
720p (HD) / WEBRip IMDb
Star Trek: Discovery S02E11

Star Trek: Discovery S02E11
WEBRip | MKV | 1280x528 | Polish / English | H264 @ 2411 kbps | AC-3 @ 640 kbps | 49 min 23 s | 1.27 GiB
Subtitles: Polish

Odważni odkrywcy, ze statku USS Discovery, docierają tam, gdzie nikt wcześniej nie dotarł. Ich misję chce jednak przerwać potężne imperium.

Star.Trek.Discovery.S02E11.POLISH.720p.WEBRip.x264-ProPLTV.mkv (1.3 GB)
star.trek.discovery.s02e11.polish.720p.webrip.x264-propltv-sample.mkv (23.8 MB)



General
Unique ID : 305458172449470589412764187877633118588 (0xE5CD1AA6CF7171B0F9382CA5850B517C)
Complete name : ./Star.Trek.Discovery.S02E11.POLISH.720p.WEBRip.x264-ProPLTV.mkv
Format : Matroska
Format version : Version 2
File size : 1.27 GiB
Duration : 49 min 23 s
Overall bit rate : 3 694 kb/s
Encoded date : UTC 2019-03-29 08:28:41
Writing application : mkvmerge v29.0.0 ('Like It Or Not') 64-bit
Writing library : libebml v1.3.6 + libmatroska v1.4.9

Video
ID : 1
Format : AVC
Format/Info : Advanced Video Codec
Format profile : High@L4.1
Format settings : CABAC / 5 Ref Frames
Format settings, CABAC : Yes
Format settings, RefFrames : 5 frames
Codec ID : V_MPEG4/ISO/AVC
Duration : 49 min 23 s
Bit rate : 2 412 kb/s
Width : 1 280 pixels
Height : 528 pixels
Display aspect ratio : 2.40:1
Frame rate mode : Constant
Frame rate : 23.976 (24000/1001) FPS
Color space : YUV
Chroma subsampling : 4:2:0
Bit depth : 8 bits
Scan type : Progressive
Bits/(Pixel*Frame) : 0.149
Stream size : 852 MiB (65%)
Writing library : x264 core 157 r2935 545de2f
Encoding settings : cabac=1 / ref=5 / deblock=1:-3:-3 / analyse=0x3:0x113 / me=umh / subme=8 / psy=1 / psy_rd=1.00:0.00 / mixed_ref=1 / me_range=16 / chroma_me=1 / trellis=2 / 8x8dct=1 / cqm=0 / deadzone=21,11 / fast_pskip=0 / chroma_qp_offset=-2 / threads=16 / lookahead_threads=2 / sliced_threads=0 / nr=0 / decimate=1 / interlaced=0 / bluray_compat=0 / constrained_intra=0 / bframes=3 / b_pyramid=2 / b_adapt=1 / b_bias=0 / direct=1 / weightb=1 / open_gop=0 / weightp=2 / keyint=240 / keyint_min=23 / scenecut=40 / intra_refresh=0 / rc_lookahead=50 / rc=crf / mbtree=1 / crf=18.0 / qcomp=0.70 / qpmin=0 / qpmax=69 / qpstep=4 / vbv_maxrate=62500 / vbv_bufsize=78125 / crf_max=0.0 / nal_hrd=none / filler=0 / ip_ratio=1.40 / aq=1:1.00
Default : Yes
Forced : No

Audio #1
ID : 2
Format : AC-3
Format/Info : Audio Coding 3
Format settings, Endianness : Big
Codec ID : A_AC3
Duration : 49 min 23 s
Bit rate mode : Constant
Bit rate : 640 kb/s
Channel(s) : 6 channels
Channel positions : Front: L C R, Side: L R, LFE
Sampling rate : 48.0 kHz
Frame rate : 31.250 FPS (1536 SPF)
Bit depth : 16 bits
Compression mode : Lossy
Stream size : 226 MiB (17%)
Language : Polish
Service kind : Complete Main
Default : Yes
Forced : No

Audio #2
ID : 3
Format : AC-3
Format/Info : Audio Coding 3
Format settings, Endianness : Big
Codec ID : A_AC3
Duration : 49 min 23 s
Bit rate mode : Constant
Bit rate : 640 kb/s
Channel(s) : 6 channels
Channel positions : Front: L C R, Side: L R, LFE
Sampling rate : 48.0 kHz
Frame rate : 31.250 FPS (1536 SPF)
Bit depth : 16 bits
Compression mode : Lossy
Stream size : 226 MiB (17%)
Language : English
Service kind : Complete Main
Default : No
Forced : No

Text #1
ID : 4
Format : UTF-8
Codec ID : S_TEXT/UTF8
Codec ID/Info : UTF-8 Plain Text
Duration : 47 min 17 s
Bit rate : 0 b/s
Count of elements : 7
Stream size : 127 Bytes (0%)
Title : Forced
Language : Polish
Default : Yes
Forced : Yes

Text #2
ID : 5
Format : UTF-8
Codec ID : S_TEXT/UTF8
Codec ID/Info : UTF-8 Plain Text
Duration : 48 min 43 s
Bit rate : 65 b/s
Count of elements : 777
Stream size : 23.5 KiB (0%)
Title : Polish
Language : Polish
Default : No
Forced : No





Star Trek: Discovery S02E11


Star Trek: Discovery S02E11


Star Trek: Discovery S02E11


Star Trek: Discovery S02E11


Star Trek: Discovery S02E11

All episodes