Index
# A B C D E F G H I J K L M N O P Q R S T U V W Y Z
Tags
Language
Tags

Featured TV Shows


Star Trek: Discovery S02E11

Posted By: Tavaz
720p (HD) / WEB-DL IMDb
Star Trek: Discovery S02E11

Star Trek: Discovery S02E11
WEB-DL | MKV | 1280x720 | English | H264 @ 3519 kbps | E-AC-3 @ 640 kbps | 49 min 20 s | 1.43 GiB
Subtitles: English


Follow the voyages of Starfleet on their missions to discover new worlds and new life forms, and one Starfleet officer who must learn that to truly understand all things alien, you must first understand yourself.

0dcef066d5854cb38e6366345b0decd1.mkv (1.4 GB)



General
Unique ID : 218741613163956212565699348295294762035 (0xA4901A2F8536B8D37BC24F98BB85BC33)
Complete name : ./0dcef066d5854cb38e6366345b0decd1.mkv
Format : Matroska
Format version : Version 4 / Version 2
File size : 1.43 GiB
Duration : 49 min 20 s
Overall bit rate : 4 162 kb/s
Encoded date : UTC 2019-03-29 00:11:42
Writing application : mkvmerge v32.0.0 ('Astral Progressions') 64-bit
Writing library : libebml v1.3.7 + libmatroska v1.5.0

Video
ID : 1
Format : AVC
Format/Info : Advanced Video Codec
Format profile : High@L3.1
Format settings : CABAC / 4 Ref Frames
Format settings, CABAC : Yes
Format settings, RefFrames : 4 frames
Codec ID : V_MPEG4/ISO/AVC
Duration : 49 min 20 s
Bit rate mode : Constant
Bit rate : 3 520 kb/s
Nominal bit rate : 6 000 kb/s
Width : 1 280 pixels
Height : 720 pixels
Display aspect ratio : 16:9
Frame rate mode : Constant
Frame rate : 24.000 FPS
Color space : YUV
Chroma subsampling : 4:2:0
Bit depth : 8 bits
Scan type : Progressive
Bits/(Pixel*Frame) : 0.159
Stream size : 1.21 GiB (85%)
Default : Yes
Forced : No
Color range : Limited
Color primaries : BT.709
Transfer characteristics : BT.709
Matrix coefficients : BT.709

Audio
ID : 2
Format : E-AC-3
Format/Info : Enhanced Audio Coding 3
Format settings, Endianness : Big
Codec ID : A_EAC3
Duration : 49 min 20 s
Bit rate mode : Constant
Bit rate : 640 kb/s
Channel(s) : 6 channels
Channel positions : Front: L C R, Side: L R, LFE
Sampling rate : 48.0 kHz
Frame rate : 187.500 FPS (256 SPF)
Compression mode : Lossy
Stream size : 226 MiB (15%)
Language : English
Service kind : Complete Main
Default : Yes
Forced : No

Text #1
ID : 3
Format : UTF-8
Codec ID : S_TEXT/UTF8
Codec ID/Info : UTF-8 Plain Text
Duration : 47 min 34 s
Bit rate : 79 b/s
Count of elements : 893
Stream size : 27.7 KiB (0%)
Language : English
Default : No
Forced : No

Text #2
ID : 4
Format : UTF-8
Codec ID : S_TEXT/UTF8
Codec ID/Info : UTF-8 Plain Text
Duration : 47 min 34 s
Bit rate : 81 b/s
Count of elements : 942
Stream size : 28.5 KiB (0%)
Title : SDH
Language : English
Default : No
Forced : No





Star Trek: Discovery S02E11


Star Trek: Discovery S02E11


Star Trek: Discovery S02E11


Star Trek: Discovery S02E11


Star Trek: Discovery S02E11

All episodes