Index
# A B C D E F G H I J K L M N O P Q R S T U V W Y Z
Tags
Language
Tags

Featured TV Shows


Star Trek: Discovery S02E11

Posted By: Tavaz
1080p (FullHD) / WEBRip IMDb
Star Trek: Discovery S02E11

Star Trek: Discovery S02E11
WEBRip | MKV | 1920x1080 | English | H264 @ 7934 kbps | E-AC-3 @ 640 kbps | 49 min 20 s | 2.96 GiB
Subtitles: English

Follow the voyages of Starfleet on their missions to discover new worlds and new life forms, and one Starfleet officer who must learn that to truly understand all things alien, you must first understand yourself.

Star.Trek.Discovery.S02E11.iNTERNAL.1080p.WEB.H264-AMRAP.mkv (3.0 GB)



General
Unique ID : 229227930106499121066151997582571794409 (0xAC73B18721CC8EAE0DAE1A69C050EFE9)
Complete name : ./Star.Trek.Discovery.S02E11.iNTERNAL.1080p.WEB.H264-AMRAP.mkv
Format : Matroska
Format version : Version 4 / Version 2
File size : 2.96 GiB
Duration : 49 min 20 s
Overall bit rate : 8 577 kb/s
Encoded date : UTC 2019-03-28 21:19:14
Writing application : mkvmerge v30.1.0 ('Forever And More') 64-bit
Writing library : libebml v1.3.6 + libmatroska v1.4.9

Video
ID : 1
Format : AVC
Format/Info : Advanced Video Codec
Format profile : High@L4
Format settings : CABAC / 4 Ref Frames
Format settings, CABAC : Yes
Format settings, RefFrames : 4 frames
Codec ID : V_MPEG4/ISO/AVC
Duration : 49 min 20 s
Bit rate mode : Constant
Bit rate : 7 935 kb/s
Nominal bit rate : 10 000 kb/s
Width : 1 920 pixels
Height : 1 080 pixels
Display aspect ratio : 16:9
Frame rate mode : Constant
Frame rate : 24.000 FPS
Color space : YUV
Chroma subsampling : 4:2:0
Bit depth : 8 bits
Scan type : Progressive
Bits/(Pixel*Frame) : 0.159
Stream size : 2.73 GiB (93%)
Language : English
Default : Yes
Forced : No
Color range : Limited
Color primaries : BT.709
Transfer characteristics : BT.709
Matrix coefficients : BT.709

Audio
ID : 2
Format : E-AC-3
Format/Info : Enhanced Audio Coding 3
Format settings, Endianness : Big
Codec ID : A_EAC3
Duration : 49 min 20 s
Bit rate mode : Constant
Bit rate : 640 kb/s
Channel(s) : 6 channels
Channel positions : Front: L C R, Side: L R, LFE
Sampling rate : 48.0 kHz
Frame rate : 187.500 FPS (256 SPF)
Compression mode : Lossy
Stream size : 226 MiB (7%)
Language : English
Service kind : Complete Main
Default : Yes
Forced : No

Text
ID : 3
Format : UTF-8
Codec ID : S_TEXT/UTF8
Codec ID/Info : UTF-8 Plain Text
Duration : 47 min 34 s
Bit rate : 81 b/s
Count of elements : 942
Stream size : 28.5 KiB (0%)
Title : English
Language : English
Default : No
Forced : No





Star Trek: Discovery S02E11


Star Trek: Discovery S02E11


Star Trek: Discovery S02E11


Star Trek: Discovery S02E11


Star Trek: Discovery S02E11

All episodes