Index
# A B C D E F G H I J K L M N O P Q R S T U V W Y Z
Tags
Language
Tags

Featured TV Shows


Star Trek: Discovery S02E13

Posted By:
720p (HD) / WEB-DL IMDb
Star Trek: Discovery S02E13

Star Trek: Discovery S02E13
WEB-DL | MKV | 1280x720 | English | H264 @ 4394 kbps | E-AC-3 @ 640 kbps | 48 min 21 s | 1.70 GiB
Subtitles: English


Follow the voyages of Starfleet on their missions to discover new worlds and new life forms, and one Starfleet officer who must learn that to truly understand all things alien, you must first understand yourself.

f753e6e76c2f4cb19fc05ca7a9928cf6.mkv (1.7 GB)



General
Unique ID : 6855267919710903396912845547586317439 (0x52846CDB4F195B6513348D3B9BDEC7F)
Complete name : ./f753e6e76c2f4cb19fc05ca7a9928cf6.mkv
Format : Matroska
Format version : Version 4 / Version 2
File size : 1.70 GiB
Duration : 48 min 21 s
Overall bit rate : 5 037 kb/s
Encoded date : UTC 2019-04-12 03:21:22
Writing application : mkvmerge v32.0.0 ('Astral Progressions') 64-bit
Writing library : libebml v1.3.7 + libmatroska v1.5.0

Video
ID : 1
Format : AVC
Format/Info : Advanced Video Codec
Format profile : High@L3.1
Format settings : CABAC / 4 Ref Frames
Format settings, CABAC : Yes
Format settings, RefFrames : 4 frames
Codec ID : V_MPEG4/ISO/AVC
Duration : 48 min 21 s
Bit rate mode : Constant
Bit rate : 4 394 kb/s
Nominal bit rate : 6 000 kb/s
Width : 1 280 pixels
Height : 720 pixels
Display aspect ratio : 16:9
Frame rate mode : Constant
Frame rate : 24.000 FPS
Color space : YUV
Chroma subsampling : 4:2:0
Bit depth : 8 bits
Scan type : Progressive
Bits/(Pixel*Frame) : 0.199
Stream size : 1.48 GiB (87%)
Default : Yes
Forced : No
Color range : Limited
Color primaries : BT.709
Transfer characteristics : BT.709
Matrix coefficients : BT.709

Audio
ID : 2
Format : E-AC-3
Format/Info : Enhanced Audio Coding 3
Format settings, Endianness : Big
Codec ID : A_EAC3
Duration : 48 min 21 s
Bit rate mode : Constant
Bit rate : 640 kb/s
Channel(s) : 6 channels
Channel positions : Front: L C R, Side: L R, LFE
Sampling rate : 48.0 kHz
Frame rate : 187.500 FPS (256 SPF)
Compression mode : Lossy
Stream size : 221 MiB (13%)
Language : English
Service kind : Complete Main
Default : Yes
Forced : No

Text #1
ID : 3
Format : UTF-8
Codec ID : S_TEXT/UTF8
Codec ID/Info : UTF-8 Plain Text
Duration : 46 min 25 s
Bit rate : 75 b/s
Count of elements : 800
Stream size : 25.5 KiB (0%)
Language : English
Default : No
Forced : No

Text #2
ID : 4
Format : UTF-8
Codec ID : S_TEXT/UTF8
Codec ID/Info : UTF-8 Plain Text
Duration : 46 min 25 s
Bit rate : 76 b/s
Count of elements : 842
Stream size : 26.2 KiB (0%)
Title : SDH
Language : English
Default : No
Forced : No





Star Trek: Discovery S02E13


Star Trek: Discovery S02E13


Star Trek: Discovery S02E13


Star Trek: Discovery S02E13


Star Trek: Discovery S02E13

All episodes