Index
# A B C D E F G H I J K L M N O P Q R S T U V W Y Z
Tags
Language
Tags

Featured TV Shows


Star Trek: Discovery S03E05

Posted By:
720p (HD) / WEBRip IMDb
Star Trek: Discovery S03E05

Star Trek: Discovery S03E05
WEBRip | MKV | 1280x720 | English | H264 @ 3265 kbps | E-AC-3 @ 640 kbps | 55 min 51 s | 1.52 GiB
Subtitles: English


Follow the voyages of Starfleet on their missions to discover new worlds and new life forms, and one Starfleet officer who must learn that to truly understand all things alien, you must first understand yourself.

89f36f9e71524150897fbcbea5322847.mkv (1.5 GB)



General
Unique ID : 48401282417292585854418390102805994010 (0x2469BF7762902B5267AC24051E825A1A)
Complete name : ./89f36f9e71524150897fbcbea5322847.mkv
Format : Matroska
Format version : Version 4 / Version 2
File size : 1.52 GiB
Duration : 55 min 51 s
Overall bit rate : 3 908 kb/s
Writing application : mkvmerge v51.0.0 ('I Wish') 64-bit
Writing library : libebml v1.4.0 + libmatroska v1.6.2

Video
ID : 1
Format : AVC
Format/Info : Advanced Video Codec
Format profile : High@L3.1
Format settings : CABAC / 4 Ref Frames
Format settings, CABAC : Yes
Format settings, RefFrames : 4 frames
Codec ID : V_MPEG4/ISO/AVC
Duration : 55 min 51 s
Bit rate mode : Constant
Bit rate : 3 266 kb/s
Nominal bit rate : 6 000 kb/s
Width : 1 280 pixels
Height : 720 pixels
Display aspect ratio : 16:9
Frame rate mode : Constant
Frame rate : 24.000 FPS
Color space : YUV
Chroma subsampling : 4:2:0
Bit depth : 8 bits
Scan type : Progressive
Bits/(Pixel*Frame) : 0.148
Stream size : 1.27 GiB (84%)
Language : English
Default : Yes
Forced : No
Color range : Limited
Color primaries : BT.709
Transfer characteristics : BT.709
Matrix coefficients : BT.709

Audio
ID : 2
Format : E-AC-3
Format/Info : Enhanced Audio Coding 3
Format settings, Endianness : Big
Codec ID : A_EAC3
Duration : 55 min 51 s
Bit rate mode : Constant
Bit rate : 640 kb/s
Channel(s) : 6 channels
Channel positions : Front: L C R, Side: L R, LFE
Sampling rate : 48.0 kHz
Frame rate : 187.500 FPS (256 SPF)
Compression mode : Lossy
Stream size : 256 MiB (16%)
Language : English
Service kind : Complete Main
Default : Yes
Forced : No

Text
ID : 3
Format : UTF-8
Codec ID : S_TEXT/UTF8
Codec ID/Info : UTF-8 Plain Text
Duration : 53 min 52 s
Bit rate : 81 b/s
Count of elements : 979
Stream size : 32.2 KiB (0%)
Title : English (SDH)
Language : English
Default : No
Forced : No





Star Trek: Discovery S03E05


Star Trek: Discovery S03E05


Star Trek: Discovery S03E05


Star Trek: Discovery S03E05


Star Trek: Discovery S03E05

All episodes