Index
# A B C D E F G H I J K L M N O P Q R S T U V W Y Z
Tags
Language
Tags

Featured TV Shows


Star Trek: Picard S01E01

Posted By: Tavaz
1080p (FullHD) / WEB-DL IMDb
Star Trek: Picard S01E01

Star Trek: Picard S01E01
WEB-DL | MKV | 1920x1080 | English | H264 @ 8710 kbps | E-AC-3 @ 640 kbps | 44 min 22 s | 2.90 GiB
Subtitles: English, Čeština, Dansk, Deutsch, Ελληνικά, Español, Suomi, Français, Italiano, Bokmål, Nederlands, Polski, Português, Русский, Svenska, Türkçe, हिन्दी, Bahasa Melayu, 日本語, עברית, ಕನ್ನಡ, العربية, 中文, 한국어
Genre: Action, Adventure, Drama

Star Trek: Picard features Sir Patrick Stewart reprising his iconic role as Jean-Luc Picard, which he played for seven seasons on Star Trek: The Next Generation. Set twenty years after the events of Star Trek Nemesis, this series follow the now-retired Admiral Picard into the next chapter of his life.

b3b9d603d65148c7aae1ecbd26089193.mkv (2.9 GB)



General
Unique ID : 31104980187589651448453073539045633118 (0x176699ED3E1C32934BD57383ACD1AC5E)
Complete name : ./b3b9d603d65148c7aae1ecbd26089193.mkv
Format : Matroska
Format version : Version 4 / Version 2
File size : 2.90 GiB
Duration : 44 min 22 s
Overall bit rate : 9 342 kb/s
Encoded date : UTC 2020-01-24 02:52:26
Writing application : mkvmerge v19.0.0 ('Brave Captain') 64-bit
Writing library : libebml v1.3.5 + libmatroska v1.4.8

Video
ID : 1
Format : AVC
Format/Info : Advanced Video Codec
Format profile : High@L4
Format settings : CABAC / 4 Ref Frames
Format settings, CABAC : Yes
Format settings, RefFrames : 4 frames
Codec ID : V_MPEG4/ISO/AVC
Duration : 44 min 18 s
Bit rate mode : Constant
Bit rate : 8 711 kb/s
Nominal bit rate : 10 000 kb/s
Width : 1 920 pixels
Height : 1 080 pixels
Display aspect ratio : 16:9
Frame rate mode : Constant
Frame rate : 23.976 (24000/1001) FPS
Color space : YUV
Chroma subsampling : 4:2:0
Bit depth : 8 bits
Scan type : Progressive
Bits/(Pixel*Frame) : 0.175
Stream size : 2.70 GiB (93%)
Default : Yes
Forced : No
Color range : Limited
Color primaries : BT.709
Transfer characteristics : BT.709
Matrix coefficients : BT.709

Audio
ID : 2
Format : E-AC-3
Format/Info : Enhanced Audio Coding 3
Format settings, Endianness : Big
Codec ID : A_EAC3
Duration : 44 min 18 s
Bit rate mode : Constant
Bit rate : 640 kb/s
Channel(s) : 6 channels
Channel positions : Front: L C R, Side: L R, LFE
Sampling rate : 48.0 kHz
Frame rate : 187.500 FPS (256 SPF)
Compression mode : Lossy
Stream size : 203 MiB (7%)
Language : English
Service kind : Complete Main
Default : Yes
Forced : No

Text #1
ID : 3
Format : UTF-8
Codec ID : S_TEXT/UTF8
Codec ID/Info : UTF-8 Plain Text
Duration : 43 min 23 s
Bit rate : 78 b/s
Count of elements : 570
Stream size : 24.9 KiB (0%)
Language : Arabic
Default : No
Forced : No

Text #2
ID : 4
Format : UTF-8
Codec ID : S_TEXT/UTF8
Codec ID/Info : UTF-8 Plain Text
Duration : 42 min 26 s
Bit rate : 55 b/s
Count of elements : 569
Stream size : 17.3 KiB (0%)
Language : Danish
Default : No
Forced : No

Text #3
ID : 5
Format : UTF-8
Codec ID : S_TEXT/UTF8
Codec ID/Info : UTF-8 Plain Text
Duration : 42 min 26 s
Bit rate : 58 b/s
Count of elements : 560
Stream size : 18.3 KiB (0%)
Language : German
Default : No
Forced : No

Text #4
ID : 6
Format : UTF-8
Codec ID : S_TEXT/UTF8
Codec ID/Info : UTF-8 Plain Text
Duration : 3 min 58 s
Bit rate : 5 b/s
Count of elements : 5
Stream size : 156 Bytes (0%)
Title : Forced
Language : English
Default : No
Forced : Yes

Text #5
ID : 7
Format : UTF-8
Codec ID : S_TEXT/UTF8
Codec ID/Info : UTF-8 Plain Text
Duration : 41 min 27 s
Bit rate : 54 b/s
Count of elements : 546
Stream size : 16.6 KiB (0%)
Language : English
Default : No
Forced : No

Text #6
ID : 8
Format : UTF-8
Codec ID : S_TEXT/UTF8
Codec ID/Info : UTF-8 Plain Text
Duration : 42 min 25 s
Bit rate : 56 b/s
Count of elements : 589
Stream size : 17.6 KiB (0%)
Title : SDH
Language : English
Default : No
Forced : No

Text #7
ID : 9
Format : UTF-8
Codec ID : S_TEXT/UTF8
Codec ID/Info : UTF-8 Plain Text
Duration : 43 min 23 s
Bit rate : 49 b/s
Count of elements : 569
Stream size : 15.8 KiB (0%)
Title : Latinoamérica
Language : Spanish
Default : No
Forced : No

Text #8
ID : 10
Format : UTF-8
Codec ID : S_TEXT/UTF8
Codec ID/Info : UTF-8 Plain Text
Duration : 42 min 26 s
Bit rate : 54 b/s
Count of elements : 573
Stream size : 16.9 KiB (0%)
Title : España
Language : Spanish
Default : No
Forced : No

Text #9
ID : 11
Format : UTF-8
Codec ID : S_TEXT/UTF8
Codec ID/Info : UTF-8 Plain Text
Duration : 43 min 30 s
Bit rate : 50 b/s
Count of elements : 568
Stream size : 16.2 KiB (0%)
Language : Finnish
Default : No
Forced : No

Text #10
ID : 12
Format : UTF-8
Codec ID : S_TEXT/UTF8
Codec ID/Info : UTF-8 Plain Text
Duration : 43 min 23 s
Bit rate : 61 b/s
Count of elements : 564
Stream size : 19.4 KiB (0%)
Language : French
Default : No
Forced : No

Text #11
ID : 13
Format : UTF-8
Codec ID : S_TEXT/UTF8
Codec ID/Info : UTF-8 Plain Text
Duration : 43 min 23 s
Bit rate : 75 b/s
Count of elements : 571
Stream size : 23.9 KiB (0%)
Language : Hebrew
Default : No
Forced : No

Text #12
ID : 14
Format : UTF-8
Codec ID : S_TEXT/UTF8
Codec ID/Info : UTF-8 Plain Text
Duration : 42 min 26 s
Bit rate : 141 b/s
Count of elements : 571
Stream size : 44.0 KiB (0%)
Language : Hindi
Default : No
Forced : No

Text #13
ID : 15
Format : UTF-8
Codec ID : S_TEXT/UTF8
Codec ID/Info : UTF-8 Plain Text
Duration : 43 min 23 s
Bit rate : 50 b/s
Count of elements : 569
Stream size : 16.1 KiB (0%)
Language : Italian
Default : No
Forced : No

Text #14
ID : 16
Format : UTF-8
Codec ID : S_TEXT/UTF8
Codec ID/Info : UTF-8 Plain Text
Duration : 41 min 27 s
Bit rate : 50 b/s
Count of elements : 515
Stream size : 15.3 KiB (0%)
Language : Japanese
Default : No
Forced : No

Text #15
ID : 17
Format : UTF-8
Codec ID : S_TEXT/UTF8
Codec ID/Info : UTF-8 Plain Text
Duration : 42 min 26 s
Bit rate : 163 b/s
Count of elements : 587
Stream size : 50.8 KiB (0%)
Language : Kannada
Default : No
Forced : No

Text #16
ID : 18
Format : UTF-8
Codec ID : S_TEXT/UTF8
Codec ID/Info : UTF-8 Plain Text
Duration : 41 min 27 s
Bit rate : 63 b/s
Count of elements : 568
Stream size : 19.3 KiB (0%)
Language : Korean
Default : No
Forced : No

Text #17
ID : 19
Format : UTF-8
Codec ID : S_TEXT/UTF8
Codec ID/Info : UTF-8 Plain Text
Duration : 42 min 28 s
Bit rate : 182 b/s
Count of elements : 595
Stream size : 56.8 KiB (0%)
Language : Malay
Default : No
Forced : No

Text #18
ID : 20
Format : UTF-8
Codec ID : S_TEXT/UTF8
Codec ID/Info : UTF-8 Plain Text
Duration : 42 min 26 s
Bit rate : 54 b/s
Count of elements : 569
Stream size : 16.8 KiB (0%)
Language : Norwegian Bokmal
Default : No
Forced : No

Text #19
ID : 21
Format : UTF-8
Codec ID : S_TEXT/UTF8
Codec ID/Info : UTF-8 Plain Text
Duration : 43 min 23 s
Bit rate : 50 b/s
Count of elements : 555
Stream size : 16.2 KiB (0%)
Language : Dutch
Default : No
Forced : No

Text #20
ID : 22
Format : UTF-8
Codec ID : S_TEXT/UTF8
Codec ID/Info : UTF-8 Plain Text
Duration : 43 min 23 s
Bit rate : 51 b/s
Count of elements : 569
Stream size : 16.2 KiB (0%)
Language : Polish
Default : No
Forced : No

Text #21
ID : 23
Format : UTF-8
Codec ID : S_TEXT/UTF8
Codec ID/Info : UTF-8 Plain Text
Duration : 43 min 23 s
Bit rate : 50 b/s
Count of elements : 569
Stream size : 16.2 KiB (0%)
Title : Brasil
Language : Portuguese
Default : No
Forced : No

Text #22
ID : 24
Format : UTF-8
Codec ID : S_TEXT/UTF8
Codec ID/Info : UTF-8 Plain Text
Duration : 43 min 23 s
Bit rate : 55 b/s
Count of elements : 569
Stream size : 17.6 KiB (0%)
Title : Portugal
Language : Portuguese
Default : No
Forced : No

Text #23
ID : 25
Format : UTF-8
Codec ID : S_TEXT/UTF8
Codec ID/Info : UTF-8 Plain Text
Duration : 42 min 26 s
Bit rate : 89 b/s
Count of elements : 571
Stream size : 27.9 KiB (0%)
Language : Russian
Default : No
Forced : No

Text #24
ID : 26
Format : UTF-8
Codec ID : S_TEXT/UTF8
Codec ID/Info : UTF-8 Plain Text
Duration : 43 min 23 s
Bit rate : 53 b/s
Count of elements : 569
Stream size : 17.1 KiB (0%)
Language : Swedish
Default : No
Forced : No

Text #25
ID : 27
Format : UTF-8
Codec ID : S_TEXT/UTF8
Codec ID/Info : UTF-8 Plain Text
Duration : 43 min 23 s
Bit rate : 54 b/s
Count of elements : 569
Stream size : 17.3 KiB (0%)
Language : Turkish
Default : No
Forced : No

Text #26
ID : 28
Format : UTF-8
Codec ID : S_TEXT/UTF8
Codec ID/Info : UTF-8 Plain Text
Duration : 43 min 23 s
Bit rate : 51 b/s
Count of elements : 571
Stream size : 16.2 KiB (0%)
Title : 中文(简体)
Language : Chinese
Default : No
Forced : No

Text #27
ID : 29
Format : UTF-8
Codec ID : S_TEXT/UTF8
Codec ID/Info : UTF-8 Plain Text
Duration : 43 min 23 s
Bit rate : 48 b/s
Count of elements : 571
Stream size : 15.3 KiB (0%)
Title : 中文(繁體)
Language : Chinese
Default : No
Forced : No

Menu
00:00:00.000 : en:Amazon Original
00:00:06.000 : en:Keep the game from ending
00:04:01.000 : en:Activating a new weapon
00:06:55.000 : en:Opening Credits
00:08:33.000 : en:An important interview
00:16:38.000 : en:Dahj finds Picard
00:22:06.000 : en:A clue hidden in a painting
00:26:33.000 : en:Focus and find help
00:28:08.000 : en:The truth about Dahj
00:33:49.000 : en:A visit to Okinawa Research Facility
00:40:38.000 : en:Another sad story
00:43:17.000 : en:End Credits





Star Trek: Picard S01E01


Star Trek: Picard S01E01


Star Trek: Picard S01E01


Star Trek: Picard S01E01


Star Trek: Picard S01E01

All episodes