Index
# A B C D E F G H I J K L M N O P Q R S T U V W Y Z
Tags
Language
Tags

Featured TV Shows


Star Trek: Picard S01E01

Posted By: Tavaz
720p (HD) / WEBRip IMDb
Star Trek: Picard S01E01

Star Trek: Picard S01E01
WEBRip | MKV | 1280x720 | H264 @ 3475 kbps | E-AC-3 @ 640 kbps | 44 min 18 s | 1.30 GiB


Star Trek: Picard features Sir Patrick Stewart reprising his iconic role as Jean-Luc Picard, which he played for seven seasons on Star Trek: The Next Generation. Set twenty years after the events of Star Trek Nemesis, this series follow the now-retired Admiral Picard into the next chapter of his life.

bfa2e63db36347feb3748b103bfc079e.mkv (1.3 GB)



General
Unique ID : 330070859527786222959932743387917062130 (0xF85155D08BF28F141C80511D27C00FF2)
Complete name : ./bfa2e63db36347feb3748b103bfc079e.mkv
Format : Matroska
Format version : Version 4 / Version 2
File size : 1.30 GiB
Duration : 44 min 18 s
Overall bit rate : 4 199 kb/s
Writing application : Lavf57.82.100
Writing library : Lavf57.82.100
ErrorDetectionType : Per level 1

Video
ID : 1
Format : AVC
Format/Info : Advanced Video Codec
Format profile : High@L3.1
Format settings : CABAC / 4 Ref Frames
Format settings, CABAC : Yes
Format settings, RefFrames : 4 frames
Codec ID : V_MPEG4/ISO/AVC
Duration : 44 min 18 s
Bit rate mode : Constant
Bit rate : 3 475 kb/s
Nominal bit rate : 6 000 kb/s
Width : 1 280 pixels
Height : 720 pixels
Display aspect ratio : 16:9
Frame rate mode : Constant
Frame rate : 23.976 (24000/1001) FPS
Color space : YUV
Chroma subsampling : 4:2:0
Bit depth : 8 bits
Scan type : Progressive
Bits/(Pixel*Frame) : 0.157
Stream size : 1.08 GiB (83%)
Default : Yes
Forced : No
Color range : Limited
Color primaries : BT.709
Transfer characteristics : BT.709
Matrix coefficients : BT.709

Audio
ID : 2
Format : E-AC-3
Format/Info : Enhanced Audio Coding 3
Format settings, Endianness : Big
Codec ID : A_EAC3
Duration : 44 min 18 s
Bit rate mode : Constant
Bit rate : 640 kb/s
Channel(s) : 6 channels
Channel positions : Front: L C R, Side: L R, LFE
Sampling rate : 48.0 kHz
Frame rate : 187.500 FPS (256 SPF)
Bit depth : 32 bits
Compression mode : Lossy
Stream size : 203 MiB (15%)
Service kind : Complete Main
Default : Yes
Forced : No

Text
ID : 3
Format : ASS
Codec ID : S_TEXT/ASS
Codec ID/Info : Advanced Sub Station Alpha
Duration : 9 min 25 s
Compression mode : Lossless
Writing library : Lavc57.106.101 ssa
Default : No
Forced : Yes

Menu





Star Trek: Picard S01E01


Star Trek: Picard S01E01


Star Trek: Picard S01E01


Star Trek: Picard S01E01


Star Trek: Picard S01E01

All episodes