Index
# A B C D E F G H I J K L M N O P Q R S T U V W Y Z
Tags
Language
Tags

Featured TV Shows


Star Trek: Picard S01E02

Posted By: Tavaz
720p (HD) / WEBRip IMDb
Star Trek: Picard S01E02

Star Trek: Picard S01E02
WEBRip | MKV | 1280x536 | English | H264 @ 2026 kbps | AAC @ 125 kbps | 44 min 7 s | 680 MiB


Star Trek: Picard features Sir Patrick Stewart reprising his iconic role as Jean-Luc Picard, which he played for seven seasons on Star Trek: The Next Generation. Set twenty years after the events of Star Trek Nemesis, this series follow the now-retired Admiral Picard into the next chapter of his life.

97b2a488b1aa45228258c98505133b2b.mkv (680.0 MB)



General
Unique ID : 127708025786923109216899151224548166279 (0x6013ABCD385CE961646916576C0D0A87)
Complete name : ./97b2a488b1aa45228258c98505133b2b.mkv
Format : Matroska
Format version : Version 4 / Version 2
File size : 680 MiB
Duration : 44 min 7 s
Overall bit rate : 2 154 kb/s
Encoded date : UTC 2020-01-30 07:32:43
Writing application : mkvmerge v21.0.0 ('Tardigrades Will Inherit The Earth') 64-bit
Writing library : libebml v1.3.5 + libmatroska v1.4.8

Video
ID : 1
Format : AVC
Format/Info : Advanced Video Codec
Format profile : High@L4.1
Format settings : CABAC / 5 Ref Frames
Format settings, CABAC : Yes
Format settings, RefFrames : 5 frames
Codec ID : V_MPEG4/ISO/AVC
Duration : 44 min 7 s
Bit rate : 2 026 kb/s
Width : 1 280 pixels
Height : 536 pixels
Display aspect ratio : 2.40:1
Frame rate mode : Constant
Frame rate : 23.976 (24000/1001) FPS
Color space : YUV
Chroma subsampling : 4:2:0
Bit depth : 8 bits
Scan type : Progressive
Bits/(Pixel*Frame) : 0.123
Stream size : 640 MiB (94%)
Writing library : x264 core 157 r2969 d4099dd
Encoding settings : cabac=1 / ref=5 / deblock=1:-3:-3 / analyse=0x3:0x113 / me=hex / subme=8 / psy=1 / psy_rd=1.00:0.15 / mixed_ref=1 / me_range=16 / chroma_me=1 / trellis=2 / 8x8dct=1 / cqm=0 / deadzone=21,11 / fast_pskip=1 / chroma_qp_offset=-3 / threads=17 / lookahead_threads=2 / sliced_threads=0 / nr=0 / decimate=1 / interlaced=0 / bluray_compat=0 / constrained_intra=0 / bframes=3 / b_pyramid=2 / b_adapt=2 / b_bias=0 / direct=3 / weightb=1 / open_gop=0 / weightp=2 / keyint=250 / keyint_min=23 / scenecut=40 / intra_refresh=0 / rc_lookahead=50 / rc=crf / mbtree=1 / crf=18.0 / qcomp=0.60 / qpmin=0 / qpmax=69 / qpstep=4 / ip_ratio=1.40 / aq=1:1.00
Language : English
Default : Yes
Forced : No
Color range : Limited
Matrix coefficients : BT.709

Audio
ID : 2
Format : AAC
Format/Info : Advanced Audio Codec
Format profile : LC
Codec ID : A_AAC-2
Duration : 44 min 7 s
Bit rate : 125 kb/s
Channel(s) : 2 channels
Channel positions : Front: L R
Sampling rate : 48.0 kHz
Frame rate : 46.875 FPS (1024 SPF)
Compression mode : Lossy
Stream size : 39.6 MiB (6%)
Language : English
Default : Yes
Forced : No





Star Trek: Picard S01E02


Star Trek: Picard S01E02


Star Trek: Picard S01E02


Star Trek: Picard S01E02


Star Trek: Picard S01E02

All episodes