Index
# A B C D E F G H I J K L M N O P Q R S T U V W Y Z
Tags
Language
Tags

Featured TV Shows


Star Trek: Picard S01E02

Posted By: Tavaz
1080p (FullHD) / WEBRip IMDb
Star Trek: Picard S01E02

Star Trek: Picard S01E02
WEBRip | MKV | 1920x1080 | French / English | H264 @ 8716 kbps | E-AC-3 @ 640 kbps | 43 min 31 s | 3.04 GiB
Subtitles: French, English


Star Trek: Picard features Sir Patrick Stewart reprising his iconic role as Jean-Luc Picard, which he played for seven seasons on Star Trek: The Next Generation. Set twenty years after the events of Star Trek Nemesis, this series follow the now-retired Admiral Picard into the next chapter of his life.

9c9e379f7d194abfb44cfd4321471400.mkv (3.0 GB)



General
Unique ID : 282780562477245418955244823071262359531 (0xD4BD8E27EA5194251B870DD013B5BFEB)
Complete name : ./9c9e379f7d194abfb44cfd4321471400.mkv
Format : Matroska
Format version : Version 4 / Version 2
File size : 3.04 GiB
Duration : 43 min 31 s
Overall bit rate : 9 999 kb/s
Encoded date : UTC 2020-01-30 23:12:26
Writing application : mkvmerge v43.0.0 ('The Quartermaster') 64-bit
Writing library : libebml v1.3.10 + libmatroska v1.5.2

Video
ID : 1
Format : AVC
Format/Info : Advanced Video Codec
Format profile : High@L4
Format settings : CABAC / 4 Ref Frames
Format settings, CABAC : Yes
Format settings, RefFrames : 4 frames
Codec ID : V_MPEG4/ISO/AVC
Duration : 43 min 31 s
Bit rate mode : Constant
Bit rate : 8 717 kb/s
Nominal bit rate : 10 000 kb/s
Width : 1 920 pixels
Height : 1 080 pixels
Display aspect ratio : 16:9
Frame rate mode : Constant
Frame rate : 23.976 (24000/1001) FPS
Color space : YUV
Chroma subsampling : 4:2:0
Bit depth : 8 bits
Scan type : Progressive
Bits/(Pixel*Frame) : 0.175
Stream size : 2.65 GiB (87%)
Default : Yes
Forced : No
Color range : Limited
Color primaries : BT.709
Transfer characteristics : BT.709
Matrix coefficients : BT.709

Audio #1
ID : 2
Format : E-AC-3
Format/Info : Enhanced Audio Coding 3
Format settings, Endianness : Big
Codec ID : A_EAC3
Duration : 43 min 31 s
Bit rate mode : Constant
Bit rate : 640 kb/s
Channel(s) : 6 channels
Channel positions : Front: L C R, Side: L R, LFE
Sampling rate : 48.0 kHz
Frame rate : 187.500 FPS (256 SPF)
Compression mode : Lossy
Stream size : 199 MiB (6%)
Title : French
Language : French
Service kind : Complete Main
Default : Yes
Forced : No

Audio #2
ID : 3
Format : E-AC-3
Format/Info : Enhanced Audio Coding 3
Format settings, Endianness : Big
Codec ID : A_EAC3
Duration : 43 min 31 s
Bit rate mode : Constant
Bit rate : 640 kb/s
Channel(s) : 6 channels
Channel positions : Front: L C R, Side: L R, LFE
Sampling rate : 48.0 kHz
Frame rate : 187.500 FPS (256 SPF)
Compression mode : Lossy
Stream size : 199 MiB (6%)
Title : English
Language : English
Service kind : Complete Main
Default : No
Forced : No

Text #1
ID : 4
Format : UTF-8
Codec ID : S_TEXT/UTF8
Codec ID/Info : UTF-8 Plain Text
Duration : 41 min 20 s
Bit rate : 0 b/s
Count of elements : 11
Stream size : 289 Bytes (0%)
Title : French (Forced)
Language : French
Default : Yes
Forced : Yes

Text #2
ID : 5
Format : UTF-8
Codec ID : S_TEXT/UTF8
Codec ID/Info : UTF-8 Plain Text
Duration : 42 min 24 s
Bit rate : 86 b/s
Count of elements : 660
Stream size : 26.7 KiB (0%)
Title : French
Language : French
Default : No
Forced : No

Text #3
ID : 6
Format : UTF-8
Codec ID : S_TEXT/UTF8
Codec ID/Info : UTF-8 Plain Text
Duration : 42 min 17 s
Bit rate : 78 b/s
Count of elements : 670
Stream size : 24.4 KiB (0%)
Title : English (SDH)
Language : English
Default : No
Forced : No

Menu
00:00:00.000 : en:1. Amazon Original
00:00:06.000 : en:2. Previously On
00:01:42.000 : en:3. Happy first contact day
00:05:22.000 : en:4. Title Sequence
00:07:01.000 : en:5. Picard learns about the Zhat Vash
00:14:14.000 : en:6. A good secret keeper
00:17:15.000 : en:7. An unexpected visitor
00:18:07.000 : en:8. Getting bad news
00:20:21.000 : en:9. Picard makes a request
00:24:32.000 : en:10. A brief introduction to the project
00:27:53.000 : en:11. Tea with Dr. Agnes
00:30:44.000 : en:12. Watching a surgical procedure
00:32:12.000 : en:13. Picard asks for help
00:33:29.000 : en:14. A private video chat
00:34:39.000 : en:15. Picard has a duty
00:37:00.000 : en:16. The Commodore looks into Picard
00:39:30.000 : en:17. Picard visits an old friend
00:40:33.000 : en:18. A secret meeting
00:42:30.000 : en:19. End Credits





Star Trek: Picard S01E02


Star Trek: Picard S01E02


Star Trek: Picard S01E02


Star Trek: Picard S01E02


Star Trek: Picard S01E02

All episodes