Index
# A B C D E F G H I J K L M N O P Q R S T U V W Y Z
Tags
Language
Tags

Featured TV Shows


Star Trek: Picard S01E03

Posted By: Tavaz
1080p (FullHD) / WEBRip IMDb
Star Trek: Picard S01E03

Star Trek: Picard S01E03
WEBRip | MKV | 1920x1080 | French / English | H264 @ 8411 kbps | E-AC-3 @ 640 kbps | 42 min 52 s | 2.90 GiB
Subtitles: French, English


Set twenty years after the events of Star Trek Nemesis, we follow the now-retired Admiral Picard into the next chapter of his life.

aff988219c4c4bda9fabc6eb4dc4bef7.mkv (2.9 GB)



General
Unique ID : 288695812363083776081105965217091281941 (0xD930CA7DFCF593F5567F0A01A9E9E415)
Complete name : ./aff988219c4c4bda9fabc6eb4dc4bef7.mkv
Format : Matroska
Format version : Version 4 / Version 2
File size : 2.90 GiB
Duration : 42 min 52 s
Overall bit rate : 9 679 kb/s
Encoded date : UTC 2020-02-06 23:30:02
Writing application : mkvmerge v43.0.0 ('The Quartermaster') 64-bit
Writing library : libebml v1.3.10 + libmatroska v1.5.2

Video
ID : 1
Format : AVC
Format/Info : Advanced Video Codec
Format profile : High@L4
Format settings : CABAC / 4 Ref Frames
Format settings, CABAC : Yes
Format settings, RefFrames : 4 frames
Codec ID : V_MPEG4/ISO/AVC
Duration : 42 min 48 s
Bit rate mode : Constant
Bit rate : 8 411 kb/s
Nominal bit rate : 10 000 kb/s
Width : 1 920 pixels
Height : 1 080 pixels
Display aspect ratio : 16:9
Frame rate mode : Constant
Frame rate : 23.976 (24000/1001) FPS
Color space : YUV
Chroma subsampling : 4:2:0
Bit depth : 8 bits
Scan type : Progressive
Bits/(Pixel*Frame) : 0.169
Stream size : 2.51 GiB (87%)
Default : Yes
Forced : No
Color range : Limited
Color primaries : BT.709
Transfer characteristics : BT.709
Matrix coefficients : BT.709

Audio #1
ID : 2
Format : E-AC-3
Format/Info : Enhanced Audio Coding 3
Format settings, Endianness : Big
Codec ID : A_EAC3
Duration : 42 min 48 s
Bit rate mode : Constant
Bit rate : 640 kb/s
Channel(s) : 6 channels
Channel positions : Front: L C R, Side: L R, LFE
Sampling rate : 48.0 kHz
Frame rate : 187.500 FPS (256 SPF)
Compression mode : Lossy
Stream size : 196 MiB (7%)
Title : French
Language : French
Service kind : Complete Main
Default : Yes
Forced : No

Audio #2
ID : 3
Format : E-AC-3
Format/Info : Enhanced Audio Coding 3
Format settings, Endianness : Big
Codec ID : A_EAC3
Duration : 42 min 48 s
Bit rate mode : Constant
Bit rate : 640 kb/s
Channel(s) : 6 channels
Channel positions : Front: L C R, Side: L R, LFE
Sampling rate : 48.0 kHz
Frame rate : 187.500 FPS (256 SPF)
Compression mode : Lossy
Stream size : 196 MiB (7%)
Title : English
Language : English
Service kind : Complete Main
Default : No
Forced : No

Text #1
ID : 4
Format : UTF-8
Codec ID : S_TEXT/UTF8
Codec ID/Info : UTF-8 Plain Text
Duration : 28 min 52 s
Bit rate : 1 b/s
Count of elements : 12
Stream size : 368 Bytes (0%)
Title : French (Forced)
Language : French
Default : Yes
Forced : Yes

Text #2
ID : 5
Format : UTF-8
Codec ID : S_TEXT/UTF8
Codec ID/Info : UTF-8 Plain Text
Duration : 42 min 45 s
Bit rate : 61 b/s
Count of elements : 511
Stream size : 19.3 KiB (0%)
Title : French
Language : French
Default : No
Forced : No

Text #3
ID : 6
Format : UTF-8
Codec ID : S_TEXT/UTF8
Codec ID/Info : UTF-8 Plain Text
Duration : 41 min 21 s
Bit rate : 59 b/s
Count of elements : 554
Stream size : 18.0 KiB (0%)
Title : English (SDH)
Language : English
Default : No
Forced : No

Menu
00:00:00.000 : en:1. Amazon Original
00:00:06.000 : en:2. Previously On
00:01:24.000 : en:3. Picard makes a desperate request
00:06:21.000 : en:4. Opening Credits
00:08:00.000 : en:5. Raffi isn't ready to forgive
00:10:57.000 : en:6. Soji is granted a request
00:13:39.000 : en:7. Picard needs Raffi's help
00:15:58.000 : en:8. Commodore Oh approaches Dr. Jurati
00:16:34.000 : en:9. Soji meets Ramdha
00:18:00.000 : en:10. The makings of a crew
00:24:43.000 : en:11. One eye on the stars
00:26:08.000 : en:12. Requesting a meeting
00:27:06.000 : en:13. Unexpected visitors
00:30:28.000 : en:14. Searching for answers
00:34:59.000 : en:15. Narek continues with his plan
00:38:27.000 : en:16. Time to go
00:41:50.000 : en:17. End Credits





Star Trek: Picard S01E03


Star Trek: Picard S01E03


Star Trek: Picard S01E03


Star Trek: Picard S01E03


Star Trek: Picard S01E03

All episodes