Index
# A B C D E F G H I J K L M N O P Q R S T U V W Y Z
Tags
Language
Tags

Featured TV Shows


Star Trek: Picard S01E05

Posted By: Tavaz
1080p (FullHD) / BluRay Remux IMDb
Star Trek: Picard S01E05

Star Trek: Picard S01E05
BluRay Remux | MKV | 1920x1080 | English | H264 @ 25998 kbps | DTS | 45 min 0 s | 8.78 GiB
Subtitles: English


Set twenty years after the events of Star Trek Nemesis, we follow the now-retired Admiral Picard into the next chapter of his life.

Star.Trek.Picard.S01E05.Stardust.City.Rag.1080p.DTS-HD.MA.5.1.AVC.REMUX-FraMeSToR.part1.rar (4.6 GB)
Star.Trek.Picard.S01E05.Stardust.City.Rag.1080p.DTS-HD.MA.5.1.AVC.REMUX-FraMeSToR.part2.rar (4.3 GB)



General
Unique ID : 21681731648458291057278567692072403363 (0x104FBFE74786187F6658B2DF6B0441A3)
Complete name : ./28c39d5f3f7564455bc3524d8da80abb.mkv
Format : Matroska
Format version : Version 4 / Version 2
File size : 8.78 GiB
Duration : 45 min 0 s
Overall bit rate mode : Variable
Overall bit rate : 27.9 Mb/s
Movie name : Star Trek: Picard (S01E05) Stardust City Rag
Encoded date : UTC 2020-10-19 11:47:40
Writing application : mkvmerge v51.0.0 ('I Wish') 64-bit
Writing library : libebml v1.4.0 + libmatroska v1.6.2
IMDB : tt8806524
TMDB : tv/85949
TVDB : 364093

Video
ID : 1
Format : AVC
Format/Info : Advanced Video Codec
Format profile : High@L4.1
Format settings : CABAC / 4 Ref Frames
Format settings, CABAC : Yes
Format settings, RefFrames : 4 frames
Codec ID : V_MPEG4/ISO/AVC
Duration : 45 min 0 s
Bit rate mode : Variable
Bit rate : 26.0 Mb/s
Maximum bit rate : 38.0 Mb/s
Width : 1 920 pixels
Height : 1 080 pixels
Display aspect ratio : 16:9
Frame rate mode : Constant
Frame rate : 23.976 (24000/1001) FPS
Standard : NTSC
Color space : YUV
Chroma subsampling : 4:2:0
Bit depth : 8 bits
Scan type : Progressive
Bits/(Pixel*Frame) : 0.523
Stream size : 8.17 GiB (93%)
Default : Yes
Forced : No
Color range : Limited
Color primaries : BT.709
Transfer characteristics : BT.709
Matrix coefficients : BT.709

Audio
ID : 2
Format : DTS
Format/Info : Digital Theater Systems
Format profile : MA / Core
Mode : 16
Format settings, Endianness : Big
Codec ID : A_DTS
Duration : 45 min 0 s
Bit rate mode : Variable / Constant
Bit rate : 1 920 kb/s / 1 509 kb/s
Channel(s) : 6 channels
Channel positions : Front: L C R, Side: L R, LFE
Sampling rate : 48.0 kHz
Frame rate : 93.750 FPS (512 SPF)
Bit depth : 16 bits
Compression mode : Lossless / Lossy
Stream size : 606 MiB (7%)
Title : DTS-HD MA 5.1
Language : English
Default : Yes
Forced : No

Text
ID : 3
Format : PGS
Codec ID : S_HDMV/PGS
Codec ID/Info : Picture based subtitle format used on BDs/HD-DVDs
Duration : 43 min 40 s
Bit rate : 42.0 kb/s
Count of elements : 1536
Stream size : 13.1 MiB (0%)
Title : English (SDH)
Language : English
Default : No
Forced : No

Menu
00:00:00.000 : en:Chapter 1
00:07:54.891 : en:Chapter 2
00:15:23.089 : en:Chapter 3
00:24:10.407 : en:Chapter 4
00:31:20.462 : en:Chapter 5
00:43:57.385 : en:Chapter 6





Star Trek: Picard S01E05


Star Trek: Picard S01E05


Star Trek: Picard S01E05


Star Trek: Picard S01E05


Star Trek: Picard S01E05

All episodes