Index
# A B C D E F G H I J K L M N O P Q R S T U V W Y Z
Tags
Language
Tags

Featured TV Shows


Star Trek: Picard S01E07

Posted By: Tavaz
1080p (FullHD) / BDRip IMDb
Star Trek: Picard S01E07

Star Trek: Picard S01E07
BDRip | MKV | 1920x804 | English | H264 @ 15636 kbps | DTS | 58 min 22 s | 7.20 GiB
Subtitles: 中文, English


Set twenty years after the events of Star Trek Nemesis, we follow the now-retired Admiral Picard into the next chapter of his life.

bb1a77ccce91073a132c6e071934831e.mkv (7.2 GB)



General
Unique ID : 54788073939615186120936663087085600095 (0x2937CC99A733763B3EE9E650AA153D5F)
Complete name : ./bb1a77ccce91073a132c6e071934831e.mkv
Format : Matroska
Format version : Version 4 / Version 2
File size : 7.20 GiB
Duration : 58 min 22 s
Overall bit rate : 17.7 Mb/s
Encoded date : UTC 2020-10-28 12:58:27
Writing application : mkvmerge v51.0.0 ('I Wish') 64-bit
Writing library : libebml v1.4.0 + libmatroska v1.6.2

Video
ID : 1
Format : AVC
Format/Info : Advanced Video Codec
Format profile : High@L4.1
Format settings : CABAC / 4 Ref Frames
Format settings, CABAC : Yes
Format settings, RefFrames : 4 frames
Codec ID : V_MPEG4/ISO/AVC
Duration : 58 min 22 s
Bit rate : 15.6 Mb/s
Width : 1 920 pixels
Height : 804 pixels
Display aspect ratio : 2.40:1
Frame rate mode : Constant
Frame rate : 23.976 (24000/1001) FPS
Color space : YUV
Chroma subsampling : 4:2:0
Bit depth : 8 bits
Scan type : Progressive
Bits/(Pixel*Frame) : 0.422
Stream size : 6.37 GiB (89%)
Writing library : x264 core 161 r3018+53 18a1d6c t_mod_New [(8 & 10)-bit@all X86_64]
Encoding settings : cabac=1 / ref=4 / deblock=1:-3:-3 / analyse=0x3:0x133 / me=umh / subme=11 / psy=1 / fade_compensate=0.00 / psy_rd=1.00:0.00 / mixed_ref=1 / me_range=64 / chroma_me=1 / trellis=2 / 8x8dct=1 / cqm=0 / deadzone=21,11 / fast_pskip=0 / chroma_qp_offset=-3 / threads=25 / lookahead_threads=4 / sliced_threads=0 / nr=0 / decimate=1 / interlaced=0 / bluray_compat=0 / constrained_intra=0 / fgo=0 / bframes=8 / b_pyramid=2 / b_adapt=2 / b_bias=0 / direct=3 / weightb=1 / open_gop=0 / weightp=2 / keyint=250 / keyint_min=23 / scenecut=40 / intra_refresh=0 / rc=crf / mbtree=0 / crf=15.0000 / qcomp=0.70 / qpmin=0:0:0 / qpmax=69:69:69 / qpstep=4 / ip_ratio=1.30 / pb_ratio=1.20 / aq=3:1.00 / aq-sensitivity=10.00 / aq-factor=1.00:1.00:1.00 / aq2=0 / aq3=0
Default : Yes
Forced : No
Color range : Limited
Color primaries : BT.709
Transfer characteristics : BT.709
Matrix coefficients : BT.709

Audio
ID : 2
ID in the original source medium : 4352 (0x1100)
Format : DTS
Format/Info : Digital Theater Systems
Format profile : MA / Core
Mode : 16
Format settings, Endianness : Big
Codec ID : A_DTS
Duration : 58 min 22 s
Bit rate mode : Variable / Constant
Bit rate : 1 920 kb/s / 1 509 kb/s
Channel(s) : 6 channels
Channel positions : Front: L C R, Side: L R, LFE
Sampling rate : 48.0 kHz
Frame rate : 93.750 FPS (512 SPF)
Bit depth : 16 bits
Compression mode : Lossless / Lossy
Stream size : 798 MiB (11%)
Language : English
Default : Yes
Forced : No
Original source medium : Blu-ray

Text #1
ID : 3
ID in the original source medium : 4608 (0x1200)
Format : PGS
Muxing mode : zlib
Codec ID : S_HDMV/PGS
Codec ID/Info : Picture based subtitle format used on BDs/HD-DVDs
Duration : 56 min 49 s
Bit rate : 38.8 kb/s
Count of elements : 1604
Stream size : 15.8 MiB (0%)
Language : English
Default : Yes
Forced : No
Original source medium : Blu-ray

Text #2
ID : 4
ID in the original source medium : 4609 (0x1201)
Format : PGS
Muxing mode : zlib
Codec ID : S_HDMV/PGS
Codec ID/Info : Picture based subtitle format used on BDs/HD-DVDs
Duration : 56 min 49 s
Bit rate : 30.1 kb/s
Count of elements : 1589
Stream size : 12.2 MiB (0%)
Language : Chinese
Default : No
Forced : No
Original source medium : Blu-ray

Text #3
ID : 5
ID in the original source medium : 4610 (0x1202)
Format : PGS
Muxing mode : zlib
Codec ID : S_HDMV/PGS
Codec ID/Info : Picture based subtitle format used on BDs/HD-DVDs
Duration : 56 min 49 s
Bit rate : 52.8 kb/s
Count of elements : 1589
Stream size : 21.5 MiB (0%)
Language : Chinese
Default : No
Forced : No
Original source medium : Blu-ray

Text #4
ID : 6
ID in the original source medium : 4611 (0x1203)
Format : PGS
Muxing mode : zlib
Codec ID : S_HDMV/PGS
Codec ID/Info : Picture based subtitle format used on BDs/HD-DVDs
Duration : 56 min 49 s
Bit rate : 31.5 kb/s
Count of elements : 1589
Stream size : 12.8 MiB (0%)
Language : Chinese
Default : No
Forced : No
Original source medium : Blu-ray

Text #5
ID : 7
ID in the original source medium : 4612 (0x1204)
Format : PGS
Muxing mode : zlib
Codec ID : S_HDMV/PGS
Codec ID/Info : Picture based subtitle format used on BDs/HD-DVDs
Duration : 56 min 49 s
Bit rate : 54.3 kb/s
Count of elements : 1589
Stream size : 22.1 MiB (0%)
Language : Chinese
Default : No
Forced : No
Original source medium : Blu-ray

Menu
00:00:00.000 : en:Chapter 01
00:11:45.371 : en:Chapter 02
00:24:40.896 : en:Chapter 03
00:37:02.720 : en:Chapter 04
00:47:06.114 : en:Chapter 05
00:57:19.060 : en:Chapter 06





Star Trek: Picard S01E07


Star Trek: Picard S01E07


Star Trek: Picard S01E07


Star Trek: Picard S01E07


Star Trek: Picard S01E07

All episodes