Index
# A B C D E F G H I J K L M N O P Q R S T U V W Y Z
Tags
Language
Tags

Featured TV Shows


Star Trek: Picard S01E07

Posted By: Tavaz
1080p (FullHD) / WEBRip IMDb
Star Trek: Picard S01E07

Star Trek: Picard S01E07
WEBRip | MKV | 1920x1080 | English | H264 @ 8941 kbps | E-AC-3 @ 640 kbps | 58 min 59 s | 3.95 GiB
Subtitles: English


Set twenty years after the events of Star Trek Nemesis, we follow the now-retired Admiral Picard into the next chapter of his life.

edb240aa873046899b79a5eb396a774c.mkv (3.9 GB)



General
Unique ID : 175025554088473224276894571967101011698 (0x83ACB2108F885BE8F88A6420E1E406F2)
Complete name : ./edb240aa873046899b79a5eb396a774c.mkv
Format : Matroska
Format version : Version 4 / Version 2
File size : 3.95 GiB
Duration : 58 min 59 s
Overall bit rate : 9 583 kb/s
Encoded date : UTC 2020-03-05 08:01:53
Writing application : mkvmerge v43.0.0 ('The Quartermaster') 64-bit
Writing library : libebml v1.3.10 + libmatroska v1.5.2

Video
ID : 1
Format : AVC
Format/Info : Advanced Video Codec
Format profile : High@L4
Format settings : CABAC / 4 Ref Frames
Format settings, CABAC : Yes
Format settings, RefFrames : 4 frames
Codec ID : V_MPEG4/ISO/AVC
Duration : 58 min 59 s
Bit rate mode : Constant
Bit rate : 8 941 kb/s
Nominal bit rate : 10 000 kb/s
Width : 1 920 pixels
Height : 1 080 pixels
Display aspect ratio : 16:9
Frame rate mode : Constant
Frame rate : 24.000 FPS
Color space : YUV
Chroma subsampling : 4:2:0
Bit depth : 8 bits
Scan type : Progressive
Bits/(Pixel*Frame) : 0.180
Stream size : 3.68 GiB (93%)
Language : English
Default : Yes
Forced : No
Color range : Limited
Color primaries : BT.709
Transfer characteristics : BT.709
Matrix coefficients : BT.709

Audio
ID : 2
Format : E-AC-3
Format/Info : Enhanced Audio Coding 3
Format settings, Endianness : Big
Codec ID : A_EAC3
Duration : 58 min 59 s
Bit rate mode : Constant
Bit rate : 640 kb/s
Channel(s) : 6 channels
Channel positions : Front: L C R, Side: L R, LFE
Sampling rate : 48.0 kHz
Frame rate : 187.500 FPS (256 SPF)
Compression mode : Lossy
Stream size : 270 MiB (7%)
Language : English
Service kind : Complete Main
Default : Yes
Forced : No

Text
ID : 3
Format : UTF-8
Codec ID : S_TEXT/UTF8
Codec ID/Info : UTF-8 Plain Text
Duration : 57 min 11 s
Bit rate : 61 b/s
Count of elements : 926
Stream size : 26.0 KiB (0%)
Title : English
Language : English
Default : No
Forced : No





Star Trek: Picard S01E07


Star Trek: Picard S01E07


Star Trek: Picard S01E07


Star Trek: Picard S01E07


Star Trek: Picard S01E07

All episodes