Index
# A B C D E F G H I J K L M N O P Q R S T U V W Y Z
Tags
Language
Tags

Featured TV Shows


Star Trek: Picard S01E08

Posted By: Tavaz
1080p (FullHD) / WEBRip IMDb
Star Trek: Picard S01E08

Star Trek: Picard S01E08
WEBRip | MKV | 1920x1080 | Français / English | H264 @ 8830 kbps | E-AC-3 @ 640 kbps | 55 min 26 s | 3.92 GiB
Subtitles: Français, English


Set twenty years after the events of Star Trek Nemesis, we follow the now-retired Admiral Picard into the next chapter of his life.

836d924b562941e690f115fd00e291cb.mkv (3.9 GB)



General
Unique ID : 16918406310873850532350531020176010466 (0xCBA5DD513A1A40E45B7D6E89068ACE2)
Complete name : ./836d924b562941e690f115fd00e291cb.mkv
Format : Matroska
Format version : Version 4 / Version 2
File size : 3.92 GiB
Duration : 55 min 26 s
Overall bit rate : 10.1 Mb/s
Encoded date : UTC 2020-03-12 23:08:39
Writing application : mkvmerge v44.0.0 ('Domino') 64-bit
Writing library : libebml v1.3.10 + libmatroska v1.5.2

Video
ID : 1
Format : AVC
Format/Info : Advanced Video Codec
Format profile : High@L4
Format settings : CABAC / 4 Ref Frames
Format settings, CABAC : Yes
Format settings, RefFrames : 4 frames
Codec ID : V_MPEG4/ISO/AVC
Duration : 55 min 26 s
Bit rate mode : Constant
Bit rate : 8 831 kb/s
Nominal bit rate : 10 000 kb/s
Width : 1 920 pixels
Height : 1 080 pixels
Display aspect ratio : 16:9
Frame rate mode : Constant
Frame rate : 23.976 (24000/1001) FPS
Color space : YUV
Chroma subsampling : 4:2:0
Bit depth : 8 bits
Scan type : Progressive
Bits/(Pixel*Frame) : 0.178
Stream size : 3.42 GiB (87%)
Default : Yes
Forced : No
Color range : Limited
Color primaries : BT.709
Transfer characteristics : BT.709
Matrix coefficients : BT.709

Audio #1
ID : 2
Format : E-AC-3
Format/Info : Enhanced Audio Coding 3
Format settings, Endianness : Big
Codec ID : A_EAC3
Duration : 55 min 26 s
Bit rate mode : Constant
Bit rate : 640 kb/s
Channel(s) : 6 channels
Channel positions : Front: L C R, Side: L R, LFE
Sampling rate : 48.0 kHz
Frame rate : 187.500 FPS (256 SPF)
Compression mode : Lossy
Stream size : 254 MiB (6%)
Title : French
Language : French
Service kind : Complete Main
Default : Yes
Forced : No

Audio #2
ID : 3
Format : E-AC-3
Format/Info : Enhanced Audio Coding 3
Format settings, Endianness : Big
Codec ID : A_EAC3
Duration : 55 min 26 s
Bit rate mode : Constant
Bit rate : 640 kb/s
Channel(s) : 6 channels
Channel positions : Front: L C R, Side: L R, LFE
Sampling rate : 48.0 kHz
Frame rate : 187.500 FPS (256 SPF)
Compression mode : Lossy
Stream size : 254 MiB (6%)
Title : English
Language : English
Service kind : Complete Main
Default : No
Forced : No

Text #1
ID : 4
Format : UTF-8
Codec ID : S_TEXT/UTF8
Codec ID/Info : UTF-8 Plain Text
Duration : 11 s 887 ms
Bit rate : 25 b/s
Count of elements : 2
Stream size : 38.0 Bytes (0%)
Title : French (Forced)
Language : French
Default : Yes
Forced : Yes

Text #2
ID : 5
Format : UTF-8
Codec ID : S_TEXT/UTF8
Codec ID/Info : UTF-8 Plain Text
Duration : 54 min 19 s
Bit rate : 66 b/s
Count of elements : 708
Stream size : 26.5 KiB (0%)
Title : French
Language : French
Default : No
Forced : No

Text #3
ID : 6
Format : UTF-8
Codec ID : S_TEXT/UTF8
Codec ID/Info : UTF-8 Plain Text
Duration : 54 min 3 s
Bit rate : 62 b/s
Count of elements : 807
Stream size : 24.7 KiB (0%)
Title : English (SDH)
Language : English
Default : No
Forced : No

Menu
00:00:00.000 : en:1. Amazon Original
00:00:06.000 : en:2. Previously On
00:01:32.000 : en:3. Seeing the destruction to come
00:04:58.000 : en:4. Tracking down loose ends
00:08:10.000 : en:5. Opening Credits
00:09:49.000 : en:6. Revelations on the ship
00:13:26.000 : en:7. Asking Starfleet for help
00:14:14.000 : en:8. An octonary
00:16:41.000 : en:9. Awakening the Cube
00:18:43.000 : en:10. A story waiting to be told
00:22:18.000 : en:11. Raffi keeps investigating
00:25:25.000 : en:12. Rios needs a friend
00:27:23.000 : en:13. A dilemma of conscience
00:28:18.000 : en:14. Putting together broken pieces
00:31:00.000 : en:15. Dr. Jurati talks about her hell
00:34:11.000 : en:16. History and truths
00:39:56.000 : en:17. We are Borg
00:41:49.000 : en:18. The history of the Zhat Vash
00:46:45.000 : en:19. A desire to return home
00:49:31.000 : en:20. There is work to be done
00:50:52.000 : en:21. Fear is the true great destroyer
00:54:28.000 : en:22. End Credits





Star Trek: Picard S01E08


Star Trek: Picard S01E08


Star Trek: Picard S01E08


Star Trek: Picard S01E08


Star Trek: Picard S01E08

All episodes