Index
# A B C D E F G H I J K L M N O P Q R S T U V W Y Z
Tags
Language
Tags

Featured TV Shows


Star Trek: Picard S01E09

Posted By: Tavaz
1080p (FullHD) / BluRay Remux IMDb
Star Trek: Picard S01E09

Star Trek: Picard S01E09
BluRay Remux | MKV | 1920x1080 | English | H264 @ 23998 kbps | DTS | 44 min 56 s | 8.13 GiB
Subtitles: English


Set twenty years after the events of Star Trek Nemesis, we follow the now-retired Admiral Picard into the next chapter of his life.

Star.Trek.Picard.S01E09.Et.in.Arcadia.Ego.Part.1.1080p.DTS-HD.MA.5.1.AVC.REMUX-FraMeSToR.part1.rar (4.3 GB)
Star.Trek.Picard.S01E09.Et.in.Arcadia.Ego.Part.1.1080p.DTS-HD.MA.5.1.AVC.REMUX-FraMeSToR.part2.rar (3.9 GB)



General
Unique ID : 75359530218972971773317634623608914314 (0x38B1B7B39BEE766B99085EC91267018A)
Complete name : ./a77a470790027b3a22be45ebbbc89839.mkv
Format : Matroska
Format version : Version 4 / Version 2
File size : 8.13 GiB
Duration : 44 min 56 s
Overall bit rate mode : Variable
Overall bit rate : 25.9 Mb/s
Movie name : Star Trek: Picard (S01E09) Et in Arcadia Ego Part 1
Encoded date : UTC 2020-10-19 11:45:49
Writing application : mkvmerge v51.0.0 ('I Wish') 64-bit
Writing library : libebml v1.4.0 + libmatroska v1.6.2
IMDB : tt8806524
TMDB : tv/85949
TVDB : 364093

Video
ID : 1
Format : AVC
Format/Info : Advanced Video Codec
Format profile : High@L4.1
Format settings : CABAC / 4 Ref Frames
Format settings, CABAC : Yes
Format settings, RefFrames : 4 frames
Codec ID : V_MPEG4/ISO/AVC
Duration : 44 min 56 s
Bit rate mode : Variable
Bit rate : 24.0 Mb/s
Maximum bit rate : 38.0 Mb/s
Width : 1 920 pixels
Height : 1 080 pixels
Display aspect ratio : 16:9
Frame rate mode : Constant
Frame rate : 23.976 (24000/1001) FPS
Standard : NTSC
Color space : YUV
Chroma subsampling : 4:2:0
Bit depth : 8 bits
Scan type : Progressive
Bits/(Pixel*Frame) : 0.483
Stream size : 7.53 GiB (93%)
Default : Yes
Forced : No
Color range : Limited
Color primaries : BT.709
Transfer characteristics : BT.709
Matrix coefficients : BT.709

Audio
ID : 2
Format : DTS
Format/Info : Digital Theater Systems
Format profile : MA / Core
Mode : 16
Format settings, Endianness : Big
Codec ID : A_DTS
Duration : 44 min 56 s
Bit rate mode : Variable / Constant
Bit rate : 1 875 kb/s / 1 509 kb/s
Channel(s) : 6 channels
Channel positions : Front: L C R, Side: L R, LFE
Sampling rate : 48.0 kHz
Frame rate : 93.750 FPS (512 SPF)
Bit depth : 16 bits
Compression mode : Lossless / Lossy
Stream size : 603 MiB (7%)
Title : DTS-HD MA 5.1
Language : English
Default : Yes
Forced : No

Text
ID : 3
Format : PGS
Codec ID : S_HDMV/PGS
Codec ID/Info : Picture based subtitle format used on BDs/HD-DVDs
Duration : 43 min 37 s
Bit rate : 37.1 kb/s
Count of elements : 1306
Stream size : 11.6 MiB (0%)
Title : English (SDH)
Language : English
Default : No
Forced : No

Menu
00:00:00.000 : en:Chapter 1
00:08:28.508 : en:Chapter 2
00:18:28.941 : en:Chapter 3
00:27:14.466 : en:Chapter 4
00:32:29.698 : en:Chapter 5
00:43:53.214 : en:Chapter 6





Star Trek: Picard S01E09


Star Trek: Picard S01E09


Star Trek: Picard S01E09


Star Trek: Picard S01E09


Star Trek: Picard S01E09

All episodes