Index
# A B C D E F G H I J K L M N O P Q R S T U V W Y Z
Tags
Language
Tags

Featured TV Shows


Star Trek: Picard S01E09

Posted By: Tavaz
1080p (FullHD) / WEBRip IMDb
Star Trek: Picard S01E09

Star Trek: Picard S01E09
WEBRip | MKV | 1920x1080 | Français / English | H264 @ 8875 kbps | E-AC-3 @ 640 kbps | 44 min 57 s | 3.19 GiB
Subtitles: Français, English


Set twenty years after the events of Star Trek Nemesis, we follow the now-retired Admiral Picard into the next chapter of his life.

38ad310918c8491caa52dc82c02a4c54.mkv (3.2 GB)



General
Unique ID : 193846664663773706506455238897196379727 (0x91D58275C595ADD4215F751C413CAE4F)
Complete name : ./38ad310918c8491caa52dc82c02a4c54.mkv
Format : Matroska
Format version : Version 4 / Version 2
File size : 3.19 GiB
Duration : 44 min 57 s
Overall bit rate : 10.2 Mb/s
Encoded date : UTC 2020-03-19 23:02:08
Writing application : mkvmerge v44.0.0 ('Domino') 64-bit
Writing library : libebml v1.3.10 + libmatroska v1.5.2

Video
ID : 1
Format : AVC
Format/Info : Advanced Video Codec
Format profile : High@L4
Format settings : CABAC / 4 Ref Frames
Format settings, CABAC : Yes
Format settings, RefFrames : 4 frames
Codec ID : V_MPEG4/ISO/AVC
Duration : 44 min 57 s
Bit rate mode : Constant
Bit rate : 8 876 kb/s
Nominal bit rate : 10 000 kb/s
Width : 1 920 pixels
Height : 1 080 pixels
Display aspect ratio : 16:9
Frame rate mode : Constant
Frame rate : 23.976 (24000/1001) FPS
Color space : YUV
Chroma subsampling : 4:2:0
Bit depth : 8 bits
Scan type : Progressive
Bits/(Pixel*Frame) : 0.179
Stream size : 2.79 GiB (87%)
Default : Yes
Forced : No
Color range : Limited
Color primaries : BT.709
Transfer characteristics : BT.709
Matrix coefficients : BT.709

Audio #1
ID : 2
Format : E-AC-3
Format/Info : Enhanced Audio Coding 3
Format settings, Endianness : Big
Codec ID : A_EAC3
Duration : 44 min 57 s
Bit rate mode : Constant
Bit rate : 640 kb/s
Channel(s) : 6 channels
Channel positions : Front: L C R, Side: L R, LFE
Sampling rate : 48.0 kHz
Frame rate : 187.500 FPS (256 SPF)
Compression mode : Lossy
Stream size : 206 MiB (6%)
Title : French
Language : French
Service kind : Complete Main
Default : Yes
Forced : No

Audio #2
ID : 3
Format : E-AC-3
Format/Info : Enhanced Audio Coding 3
Format settings, Endianness : Big
Codec ID : A_EAC3
Duration : 44 min 57 s
Bit rate mode : Constant
Bit rate : 640 kb/s
Channel(s) : 6 channels
Channel positions : Front: L C R, Side: L R, LFE
Sampling rate : 48.0 kHz
Frame rate : 187.500 FPS (256 SPF)
Compression mode : Lossy
Stream size : 206 MiB (6%)
Title : English
Language : English
Service kind : Complete Main
Default : No
Forced : No

Text #1
ID : 4
Format : UTF-8
Codec ID : S_TEXT/UTF8
Codec ID/Info : UTF-8 Plain Text
Duration : 43 min 51 s
Bit rate : 64 b/s
Count of elements : 586
Stream size : 20.8 KiB (0%)
Title : French
Language : French
Default : No
Forced : No

Text #2
ID : 5
Format : UTF-8
Codec ID : S_TEXT/UTF8
Codec ID/Info : UTF-8 Plain Text
Duration : 43 min 37 s
Bit rate : 60 b/s
Count of elements : 653
Stream size : 19.5 KiB (0%)
Title : English (SDH)
Language : English
Default : No
Forced : No

Menu
00:00:00.000 : en:1. Amazon Original
00:00:06.000 : en:2. Previously On
00:01:25.000 : en:3. Traveling light years in minutes
00:06:55.000 : en:4. Opening Credits
00:08:35.000 : en:5. Picard tells his crew the truth
00:12:59.000 : en:6. Heading to the Borg cube
00:18:35.000 : en:7. Arrival at the settlement
00:22:14.000 : en:8. The truth of the Admonition
00:27:21.000 : en:9. Agnes owes a great debt
00:29:01.000 : en:10. Sutra seeks a solution
00:29:57.000 : en:11. Cris and Agnes share a moment
00:31:09.000 : en:12. Raffi says thank you
00:32:36.000 : en:13. The logic of sacrifice
00:38:47.000 : en:14. A plea for peace
00:43:58.000 : en:15. End Credits





Star Trek: Picard S01E09


Star Trek: Picard S01E09


Star Trek: Picard S01E09


Star Trek: Picard S01E09


Star Trek: Picard S01E09

All episodes