Featured TV Shows


Star Wars Resistance S02E09

Posted By: Tavaz
720p (HD) / WEBRip IMDb
Star Wars Resistance S02E09

Star Wars Resistance S02E09
WEBRip | MKV | 1280x720 | English | H264 @ 3911 kbps | AC-3 @ 384 kbps | 22 min 7 s | 680 MiB
Subtitles: English
Genre: Animazione


Kazuda Xiono, a young pilot for the Resistance, is tasked with a top secret mission to investigate the First Order, a growing threat in the galaxy.

3effa475ab794072a553fbe2c75fda60.mkv (680.0 MB)



General
Unique ID : 226812379271596694876496216749149000346 (0xAAA279AD3D88FDB3DCE973049490129A)
Complete name : ./3effa475ab794072a553fbe2c75fda60.mkv
Format : Matroska
Format version : Version 4 / Version 2
File size : 680 MiB
Duration : 22 min 7 s
Overall bit rate : 4 298 kb/s
Encoded date : UTC 2019-12-02 19:13:17
Writing application : mkvmerge v40.0.0 ('Old Town Road + Pony') 64-bit
Writing library : libebml v1.3.9 + libmatroska v1.5.2
Cover : Yes
Attachments : cover.jpg

Video
ID : 1
Format : AVC
Format/Info : Advanced Video Codec
Format profile : High@L3.1
Format settings : 2 Ref Frames
Format settings, CABAC : No
Format settings, RefFrames : 2 frames
Codec ID : V_MPEG4/ISO/AVC
Duration : 22 min 7 s
Bit rate : 3 912 kb/s
Width : 1 280 pixels
Height : 720 pixels
Display aspect ratio : 16:9
Frame rate mode : Constant
Frame rate : 23.976 (24000/1001) FPS
Color space : YUV
Chroma subsampling : 4:2:0
Bit depth : 8 bits
Scan type : Progressive
Bits/(Pixel*Frame) : 0.177
Stream size : 619 MiB (91%)
Language : English
Default : Yes
Forced : No
Color range : Limited
Color primaries : BT.709
Transfer characteristics : BT.709
Matrix coefficients : BT.709

Audio
ID : 2
Format : AC-3
Format/Info : Audio Coding 3
Format settings, Endianness : Big
Codec ID : A_AC3
Duration : 22 min 7 s
Bit rate mode : Constant
Bit rate : 384 kb/s
Channel(s) : 6 channels
Channel positions : Front: L C R, Side: L R, LFE
Sampling rate : 48.0 kHz
Frame rate : 31.250 FPS (1536 SPF)
Bit depth : 16 bits
Compression mode : Lossy
Delay relative to video : -42 ms
Stream size : 60.7 MiB (9%)
Language : English
Service kind : Complete Main
Default : Yes
Forced : No

Text
ID : 3
Format : UTF-8
Codec ID : S_TEXT/UTF8
Codec ID/Info : UTF-8 Plain Text
Duration : 21 min 35 s
Bit rate : 131 b/s
Count of elements : 518
Stream size : 20.8 KiB (0%)
Language : English
Default : No
Forced : No





Star Wars Resistance S02E09


Star Wars Resistance S02E09


Star Wars Resistance S02E09


Star Wars Resistance S02E09


Star Wars Resistance S02E09

All episodes