Featured TV Shows


Star Wars Resistance S02E16

Posted By: Tavaz
1080p (FullHD) / WEBRip IMDb
Star Wars Resistance S02E16

Star Wars Resistance S02E16
WEBRip | MKV | 1920x1080 | English | H264 @ 5089 kbps | AC-3 @ 384 kbps | 22 min 7 s | 866 MiB
Subtitles: English
Genre: Animazione


Resistance ruota intorno a Kazuda Xiono, un giovane pilota che viene reclutato da Poe Dameron nella coraggiosa Resistenza della Nuova Repubblica, sotto la guida del Generale Organa, per spiare la crescente minaccia del sinistro Primo Ordine.

f3640a11e19048a99735a27cb5bad75d.mkv (866.3 MB)



General
Unique ID : 21754548964837882143560405327599730970 (0x105DC61306756EF7826C1B3EAAED811A)
Complete name : ./f3640a11e19048a99735a27cb5bad75d.mkv
Format : Matroska
Format version : Version 4 / Version 2
File size : 866 MiB
Duration : 22 min 7 s
Overall bit rate : 5 476 kb/s
Encoded date : UTC 2020-01-13 20:38:39
Writing application : mkvmerge v42.0.0 ('Overtime') 64-bit
Writing library : libebml v1.3.10 + libmatroska v1.5.2
Cover : Yes
Attachments : cover.jpg

Video
ID : 1
Format : AVC
Format/Info : Advanced Video Codec
Format profile : High@L4
Format settings : CABAC / 4 Ref Frames
Format settings, CABAC : Yes
Format settings, RefFrames : 4 frames
Codec ID : V_MPEG4/ISO/AVC
Duration : 22 min 7 s
Bit rate : 5 090 kb/s
Width : 1 920 pixels
Height : 1 080 pixels
Display aspect ratio : 16:9
Frame rate mode : Constant
Frame rate : 23.976 (24000/1001) FPS
Color space : YUV
Chroma subsampling : 4:2:0
Bit depth : 8 bits
Scan type : Progressive
Bits/(Pixel*Frame) : 0.102
Stream size : 805 MiB (93%)
Language : English
Default : Yes
Forced : No
Color range : Limited
Color primaries : BT.709
Transfer characteristics : BT.709
Matrix coefficients : BT.709

Audio
ID : 2
Format : AC-3
Format/Info : Audio Coding 3
Format settings, Endianness : Big
Codec ID : A_AC3
Duration : 22 min 7 s
Bit rate mode : Constant
Bit rate : 384 kb/s
Channel(s) : 6 channels
Channel positions : Front: L C R, Side: L R, LFE
Sampling rate : 48.0 kHz
Frame rate : 31.250 FPS (1536 SPF)
Bit depth : 16 bits
Compression mode : Lossy
Delay relative to video : -42 ms
Stream size : 60.7 MiB (7%)
Language : English
Service kind : Complete Main
Default : Yes
Forced : No

Text
ID : 3
Format : UTF-8
Codec ID : S_TEXT/UTF8
Codec ID/Info : UTF-8 Plain Text
Duration : 21 min 33 s
Bit rate : 101 b/s
Count of elements : 445
Stream size : 16.1 KiB (0%)
Language : English
Default : No
Forced : No





Star Wars Resistance S02E16


Star Wars Resistance S02E16


Star Wars Resistance S02E16


Star Wars Resistance S02E16


Star Wars Resistance S02E16

All episodes