Featured TV Shows


Star Wars: The Bad Batch S01E01

Posted By: MegoNecia
2160p (4k UHD) / WEB-DL IMDb
Star Wars: The Bad Batch S01E01

Star Wars: The Bad Batch S01E01
WEB-DL | MKV | 3840x2160 | English | H265 @ 16386 kbps | E-AC-3 @ 256 kbps | 1 h 11 min | 8.28 GiB
Subtitles: Français, Deutsch, Suomi, Español, Polski, Italiano, Nederlands, Svenska, Dansk, English, Português
Genre: Animation, Adventure, Action, Science Fiction, TV Movie


Members of a unique squad of clones find their way in a changing galaxy in the aftermath of the Clone War.

Star.Wars.The.Bad.Batch.S01E01.Aftermath.2160p.DSNP.WEB-DL.DDP5.1.HDR.HEVC-E.N.D.part1.rar (4.3 GB)
Star.Wars.The.Bad.Batch.S01E01.Aftermath.2160p.DSNP.WEB-DL.DDP5.1.HDR.HEVC-E.N.D.part2.rar (4.0 GB)



General
Unique ID : 143695666285147971419784879533031184173 (0x6C1AC7561CD4254E30E2FF177A58572D)
Complete name : ./3657a27643b18ecf80cf00398fa17e50.mkv
Format : Matroska
Format version : Version 4 / Version 2
File size : 8.28 GiB
Duration : 1 h 11 min
Overall bit rate : 16.6 Mb/s
Encoded date : UTC 2021-05-04 10:12:09
Writing application : mkvmerge v48.0.0 ('Fortress Around Your Heart') 64-bit
Writing library : libebml v1.4.0 + libmatroska v1.6.0

Video
ID : 1
Format : HEVC
Format/Info : High Efficiency Video Coding
Format profile : Main 10@L5@High
Codec ID : V_MPEGH/ISO/HEVC
Duration : 1 h 11 min
Bit rate : 16.4 Mb/s
Width : 3 840 pixels
Height : 2 160 pixels
Display aspect ratio : 16:9
Frame rate mode : Constant
Frame rate : 23.976 (24000/1001) FPS
Color space : YUV
Chroma subsampling : 4:2:0
Bit depth : 10 bits
Bits/(Pixel*Frame) : 0.082
Stream size : 8.15 GiB (98%)
Language : English
Default : Yes
Forced : No
Color range : Limited
Color primaries : BT.2020
Transfer characteristics : PQ
Matrix coefficients : BT.2020 non-constant

Audio
ID : 2
Format : E-AC-3
Format/Info : Enhanced Audio Coding 3
Format settings, Endianness : Big
Codec ID : A_EAC3
Duration : 1 h 11 min
Bit rate mode : Constant
Bit rate : 256 kb/s
Channel(s) : 6 channels
Channel positions : Front: L C R, Side: L R, LFE
Sampling rate : 48.0 kHz
Frame rate : 187.500 FPS (256 SPF)
Compression mode : Lossy
Stream size : 130 MiB (2%)
Language : English
Service kind : Complete Main
Default : Yes
Forced : No

Text #1
ID : 3
Format : UTF-8
Codec ID : S_TEXT/UTF8
Codec ID/Info : UTF-8 Plain Text
Duration : 1 h 8 min
Bit rate : 51 b/s
Count of elements : 816
Stream size : 26.1 KiB (0%)
Language : English
Default : Yes
Forced : No

Text #2
ID : 4
Format : UTF-8
Codec ID : S_TEXT/UTF8
Codec ID/Info : UTF-8 Plain Text
Duration : 1 h 9 min
Bit rate : 55 b/s
Count of elements : 893
Stream size : 28.0 KiB (0%)
Title : SDH
Language : English
Default : No
Forced : No

Text #3
ID : 5
Format : UTF-8
Codec ID : S_TEXT/UTF8
Codec ID/Info : UTF-8 Plain Text
Duration : 1 h 10 min
Bit rate : 51 b/s
Count of elements : 808
Stream size : 26.4 KiB (0%)
Language : Danish
Default : No
Forced : No

Text #4
ID : 6
Format : UTF-8
Codec ID : S_TEXT/UTF8
Codec ID/Info : UTF-8 Plain Text
Duration : 1 h 10 min
Bit rate : 47 b/s
Count of elements : 758
Stream size : 24.5 KiB (0%)
Language : Dutch
Default : No
Forced : No

Text #5
ID : 7
Format : UTF-8
Codec ID : S_TEXT/UTF8
Codec ID/Info : UTF-8 Plain Text
Duration : 1 h 10 min
Bit rate : 46 b/s
Count of elements : 804
Stream size : 24.2 KiB (0%)
Language : Finnish
Default : No
Forced : No

Text #6
ID : 8
Format : UTF-8
Codec ID : S_TEXT/UTF8
Codec ID/Info : UTF-8 Plain Text
Duration : 1 h 10 min
Bit rate : 50 b/s
Count of elements : 808
Stream size : 26.2 KiB (0%)
Language : French
Default : No
Forced : No

Text #7
ID : 9
Format : UTF-8
Codec ID : S_TEXT/UTF8
Codec ID/Info : UTF-8 Plain Text
Duration : 1 h 10 min
Bit rate : 50 b/s
Count of elements : 805
Stream size : 25.9 KiB (0%)
Language : German
Default : No
Forced : No

Text #8
ID : 10
Format : UTF-8
Codec ID : S_TEXT/UTF8
Codec ID/Info : UTF-8 Plain Text
Duration : 1 h 10 min
Bit rate : 53 b/s
Count of elements : 801
Stream size : 27.7 KiB (0%)
Language : Italian
Default : No
Forced : No

Text #9
ID : 11
Format : UTF-8
Codec ID : S_TEXT/UTF8
Codec ID/Info : UTF-8 Plain Text
Duration : 1 h 10 min
Bit rate : 49 b/s
Count of elements : 809
Stream size : 25.6 KiB (0%)
Language : Norwegian
Default : No
Forced : No

Text #10
ID : 12
Format : UTF-8
Codec ID : S_TEXT/UTF8
Codec ID/Info : UTF-8 Plain Text
Duration : 1 h 10 min
Bit rate : 48 b/s
Count of elements : 811
Stream size : 24.9 KiB (0%)
Language : Polish
Default : No
Forced : No

Text #11
ID : 13
Format : UTF-8
Codec ID : S_TEXT/UTF8
Codec ID/Info : UTF-8 Plain Text
Duration : 1 h 10 min
Bit rate : 52 b/s
Count of elements : 803
Stream size : 27.1 KiB (0%)
Title : Iberian
Language : Portuguese
Default : No
Forced : No

Text #12
ID : 14
Format : UTF-8
Codec ID : S_TEXT/UTF8
Codec ID/Info : UTF-8 Plain Text
Duration : 1 h 10 min
Bit rate : 50 b/s
Count of elements : 791
Stream size : 25.9 KiB (0%)
Title : Brazilian
Language : Portuguese
Default : No
Forced : No

Text #13
ID : 15
Format : UTF-8
Codec ID : S_TEXT/UTF8
Codec ID/Info : UTF-8 Plain Text
Duration : 1 h 10 min
Bit rate : 48 b/s
Count of elements : 787
Stream size : 25.3 KiB (0%)
Title : Castilian
Language : Spanish
Default : No
Forced : No

Text #14
ID : 16
Format : UTF-8
Codec ID : S_TEXT/UTF8
Codec ID/Info : UTF-8 Plain Text
Duration : 1 h 10 min
Bit rate : 52 b/s
Count of elements : 762
Stream size : 27.0 KiB (0%)
Title : European
Language : Spanish
Default : No
Forced : No

Text #15
ID : 17
Format : UTF-8
Codec ID : S_TEXT/UTF8
Codec ID/Info : UTF-8 Plain Text
Duration : 1 h 10 min
Bit rate : 51 b/s
Count of elements : 809
Stream size : 26.3 KiB (0%)
Language : Swedish
Default : No
Forced : No





Star Wars: The Bad Batch S01E01


Star Wars: The Bad Batch S01E01


Star Wars: The Bad Batch S01E01


Star Wars: The Bad Batch S01E01


Star Wars: The Bad Batch S01E01

All episodes