Featured TV Shows


Star Wars: The Bad Batch S01E02

Posted By: MegoNecia
2160p (4k UHD) / WEB-DL IMDb
Star Wars: The Bad Batch S01E02

Star Wars: The Bad Batch S01E02
WEB-DL | MKV | 3840x2160 | English | H265 @ 15920 kbps | E-AC-3 @ 256 kbps | 27 min 12 s | 3.08 GiB
Subtitles: Français, Deutsch, Suomi, Español, Polski, Italiano, Nederlands, Svenska, Dansk, English, Bokmål, Português
Genre: Animation


Follow the elite and experimental Clones of the Bad Batch as they find their way in a rapidly changing galaxy in the aftermath of the Clone Wars.

0ad991b354a8460f832a8bc2749a6cf0.mkv (3.1 GB)



General
Unique ID : 125244765161252152898035425812443247160 (0x5E3943AD1BD8A7E1AFD2B0D5B6573238)
Complete name : ./0ad991b354a8460f832a8bc2749a6cf0.mkv
Format : Matroska
Format version : Version 4 / Version 2
File size : 3.08 GiB
Duration : 27 min 12 s
Overall bit rate : 16.2 Mb/s
Movie name : Star.Wars.The.Bad.Batch.S01E02.Cut.and.Run.2160p.DSNP.WEB-DL.x265.10bit.HDR.DDP5.1-SWTYBLZ
Encoded date : UTC 2021-05-07 08:43:01
Writing application : mkvmerge v56.1.0 ('My Friend') 64-bit
Writing library : libebml v1.4.2 + libmatroska v1.6.4
Cover : Yes
Attachments : small_cover.jpg / small_cover_land.jpg / cover.jpg / cover_land.jpg

Video
ID : 1
Format : HEVC
Format/Info : High Efficiency Video Coding
Format profile : Main 10@L5@High
Codec ID : V_MPEGH/ISO/HEVC
Duration : 27 min 12 s
Bit rate : 15.9 Mb/s
Width : 3 840 pixels
Height : 2 160 pixels
Display aspect ratio : 16:9
Frame rate mode : Constant
Frame rate : 23.976 (24000/1001) FPS
Color space : YUV
Chroma subsampling : 4:2:0
Bit depth : 10 bits
Bits/(Pixel*Frame) : 0.080
Stream size : 3.03 GiB (98%)
Default : Yes
Forced : No
Color range : Limited
Color primaries : BT.2020
Transfer characteristics : PQ
Matrix coefficients : BT.2020 non-constant
Mastering display color primaries : R: x=0.708000 y=0.292000, G: x=0.170000 y=0.797000, B: x=0.131000 y=0.046000, White point: x=0.312700 y=0.329000
Mastering display luminance : min: 0.0001 cd/m2, max: 1000.0000 cd/m2

Audio
ID : 2
Format : E-AC-3
Format/Info : Enhanced Audio Coding 3
Format settings, Endianness : Big
Codec ID : A_EAC3
Duration : 27 min 12 s
Bit rate mode : Constant
Bit rate : 256 kb/s
Channel(s) : 6 channels
Channel positions : Front: L C R, Side: L R, LFE
Sampling rate : 48.0 kHz
Frame rate : 187.500 FPS (256 SPF)
Compression mode : Lossy
Stream size : 49.8 MiB (2%)
Title : DDP 5.1
Language : English
Service kind : Complete Main
Default : No
Forced : No

Text #1
ID : 3
Format : UTF-8
Codec ID : S_TEXT/UTF8
Codec ID/Info : UTF-8 Plain Text
Duration : 25 min 29 s
Bit rate : 48 b/s
Count of elements : 284
Stream size : 9.00 KiB (0%)
Title : English
Language : English
Default : Yes
Forced : No

Text #2
ID : 4
Format : UTF-8
Codec ID : S_TEXT/UTF8
Codec ID/Info : UTF-8 Plain Text
Duration : 25 min 32 s
Bit rate : 53 b/s
Count of elements : 326
Stream size : 9.96 KiB (0%)
Title : SDH
Language : English
Default : No
Forced : No

Text #3
ID : 5
Format : UTF-8
Codec ID : S_TEXT/UTF8
Codec ID/Info : UTF-8 Plain Text
Duration : 26 min 39 s
Bit rate : 46 b/s
Count of elements : 280
Stream size : 9.04 KiB (0%)
Title : Dansk
Language : Danish
Default : No
Forced : No

Text #4
ID : 6
Format : UTF-8
Codec ID : S_TEXT/UTF8
Codec ID/Info : UTF-8 Plain Text
Duration : 26 min 36 s
Bit rate : 45 b/s
Count of elements : 279
Stream size : 8.90 KiB (0%)
Title : Deutsch
Language : German
Default : No
Forced : No

Text #5
ID : 7
Format : UTF-8
Codec ID : S_TEXT/UTF8
Codec ID/Info : UTF-8 Plain Text
Duration : 26 min 36 s
Bit rate : 42 b/s
Count of elements : 270
Stream size : 8.35 KiB (0%)
Title : Español (Latinoamérica)
Language : Spanish
Default : No
Forced : No

Text #6
ID : 8
Format : UTF-8
Codec ID : S_TEXT/UTF8
Codec ID/Info : UTF-8 Plain Text
Duration : 26 min 39 s
Bit rate : 45 b/s
Count of elements : 262
Stream size : 8.84 KiB (0%)
Title : Español
Language : Spanish
Default : No
Forced : No

Text #7
ID : 9
Format : UTF-8
Codec ID : S_TEXT/UTF8
Codec ID/Info : UTF-8 Plain Text
Duration : 26 min 36 s
Bit rate : 41 b/s
Count of elements : 278
Stream size : 7.99 KiB (0%)
Title : Suomi
Language : Finnish
Default : No
Forced : No

Text #8
ID : 10
Format : UTF-8
Codec ID : S_TEXT/UTF8
Codec ID/Info : UTF-8 Plain Text
Duration : 26 min 36 s
Bit rate : 45 b/s
Count of elements : 279
Stream size : 8.94 KiB (0%)
Title : Français
Language : French
Default : No
Forced : No

Text #9
ID : 11
Format : UTF-8
Codec ID : S_TEXT/UTF8
Codec ID/Info : UTF-8 Plain Text
Duration : 26 min 36 s
Bit rate : 47 b/s
Count of elements : 279
Stream size : 9.16 KiB (0%)
Title : Italiano
Language : Italian
Default : No
Forced : No

Text #10
ID : 12
Format : UTF-8
Codec ID : S_TEXT/UTF8
Codec ID/Info : UTF-8 Plain Text
Duration : 26 min 39 s
Bit rate : 45 b/s
Count of elements : 280
Stream size : 8.82 KiB (0%)
Title : Norsk Bokmål
Language : Norwegian Bokmal
Default : No
Forced : No

Text #11
ID : 13
Format : UTF-8
Codec ID : S_TEXT/UTF8
Codec ID/Info : UTF-8 Plain Text
Duration : 26 min 36 s
Bit rate : 36 b/s
Count of elements : 254
Stream size : 7.17 KiB (0%)
Title : Nederlands
Language : Dutch
Default : No
Forced : No

Text #12
ID : 14
Format : UTF-8
Codec ID : S_TEXT/UTF8
Codec ID/Info : UTF-8 Plain Text
Duration : 26 min 49 s
Bit rate : 41 b/s
Count of elements : 281
Stream size : 8.21 KiB (0%)
Title : Polski
Language : Polish
Default : No
Forced : No

Text #13
ID : 15
Format : UTF-8
Codec ID : S_TEXT/UTF8
Codec ID/Info : UTF-8 Plain Text
Duration : 26 min 36 s
Bit rate : 44 b/s
Count of elements : 275
Stream size : 8.58 KiB (0%)
Title : Português (Brasil)
Language : Portuguese
Default : No
Forced : No

Text #14
ID : 16
Format : UTF-8
Codec ID : S_TEXT/UTF8
Codec ID/Info : UTF-8 Plain Text
Duration : 26 min 39 s
Bit rate : 47 b/s
Count of elements : 280
Stream size : 9.29 KiB (0%)
Title : Português
Language : Portuguese
Default : No
Forced : No

Text #15
ID : 17
Format : UTF-8
Codec ID : S_TEXT/UTF8
Codec ID/Info : UTF-8 Plain Text
Duration : 26 min 39 s
Bit rate : 46 b/s
Count of elements : 280
Stream size : 9.00 KiB (0%)
Title : Svenska
Language : Swedish
Default : No
Forced : No





Star Wars: The Bad Batch S01E02


Star Wars: The Bad Batch S01E02


Star Wars: The Bad Batch S01E02


Star Wars: The Bad Batch S01E02


Star Wars: The Bad Batch S01E02

All episodes