Featured TV Shows


Star Wars: The Bad Batch S01E03

Posted By: Tavaz
720p (HD) / WEBRip IMDb
Star Wars: The Bad Batch S01E03

Star Wars: The Bad Batch S01E03
WEBRip | MOV | 1280x720 | H264 @ 2916 kbps | AAC @ 132 kbps | 24 min 46 s | 635 MiB
Genre: Animation


Follow the elite and experimental Clones of the Bad Batch as they find their way in a rapidly changing galaxy in the aftermath of the Clone Wars.

021dcf80ecf773f316439531f490185c.mp4 (635.1 MB)



General
Complete name : ./021dcf80ecf773f316439531f490185c.mp4
Format : MPEG-4
Format profile : Base Media
Codec ID : isom (isom/iso2/avc1/mp41)
File size : 635 MiB
Duration : 24 min 46 s
Overall bit rate mode : Variable
Overall bit rate : 3 584 kb/s
Writing application : Lavf57.56.101

Video
ID : 1
Format : AVC
Format/Info : Advanced Video Codec
Format profile : High@L3.1
Format settings : CABAC / 4 Ref Frames
Format settings, CABAC : Yes
Format settings, RefFrames : 4 frames
Codec ID : avc1
Codec ID/Info : Advanced Video Coding
Duration : 24 min 46 s
Bit rate mode : Variable
Bit rate : 2 917 kb/s
Maximum bit rate : 6 375 kb/s
Width : 1 280 pixels
Height : 720 pixels
Display aspect ratio : 16:9
Frame rate mode : Constant
Frame rate : 23.976 (24000/1001) FPS
Color space : YUV
Chroma subsampling : 4:2:0
Bit depth : 8 bits
Scan type : Progressive
Bits/(Pixel*Frame) : 0.132
Stream size : 517 MiB (81%)
Color range : Limited
Color primaries : BT.709
Transfer characteristics : BT.709
Matrix coefficients : BT.709

Audio #1
ID : 2
Format : AAC
Format/Info : Advanced Audio Codec
Format profile : LC
Codec ID : mp4a-40-2
Duration : 24 min 46 s
Bit rate mode : Constant
Bit rate : 132 kb/s
Channel(s) : 2 channels
Channel positions : Front: L R
Sampling rate : 48.0 kHz
Frame rate : 46.875 FPS (1024 SPF)
Compression mode : Lossy
Stream size : 23.1 MiB (4%)
Title : Dansk
Default : Yes
Alternate group : 1

Audio #2
ID : 3
Format : AAC
Format/Info : Advanced Audio Codec
Format profile : LC
Codec ID : mp4a-40-2
Duration : 24 min 46 s
Bit rate mode : Constant
Bit rate : 132 kb/s
Channel(s) : 2 channels
Channel positions : Front: L R
Sampling rate : 48.0 kHz
Frame rate : 46.875 FPS (1024 SPF)
Compression mode : Lossy
Stream size : 23.6 MiB (4%)
Title : English
Default : Yes
Alternate group : 2

Audio #3
ID : 4
Format : AAC
Format/Info : Advanced Audio Codec
Format profile : LC
Codec ID : mp4a-40-2
Duration : 24 min 46 s
Bit rate mode : Constant
Bit rate : 127 kb/s
Channel(s) : 2 channels
Channel positions : Front: L R
Sampling rate : 48.0 kHz
Frame rate : 46.875 FPS (1024 SPF)
Compression mode : Lossy
Stream size : 22.6 MiB (4%)
Title : Norsk
Default : Yes
Alternate group : 3

Audio #4
ID : 5
Format : AAC
Format/Info : Advanced Audio Codec
Format profile : LC
Codec ID : mp4a-40-2
Duration : 24 min 46 s
Bit rate mode : Constant
Bit rate : 132 kb/s
Channel(s) : 2 channels
Channel positions : Front: L R
Sampling rate : 48.0 kHz
Frame rate : 46.875 FPS (1024 SPF)
Compression mode : Lossy
Stream size : 23.2 MiB (4%)
Title : Suomi
Default : Yes
Alternate group : 4

Audio #5
ID : 6
Format : AAC
Format/Info : Advanced Audio Codec
Format profile : LC
Codec ID : mp4a-40-2
Duration : 24 min 46 s
Bit rate mode : Variable
Bit rate : 128 kb/s
Channel(s) : 2 channels
Channel positions : Front: L R
Sampling rate : 48.0 kHz
Frame rate : 46.875 FPS (1024 SPF)
Compression mode : Lossy
Stream size : 22.5 MiB (4%)
Title : Svenska
Default : Yes
Alternate group : 5





Star Wars: The Bad Batch S01E03


Star Wars: The Bad Batch S01E03


Star Wars: The Bad Batch S01E03


Star Wars: The Bad Batch S01E03


Star Wars: The Bad Batch S01E03

All episodes