Featured TV Shows


Star Wars: The Bad Batch S01E03

Posted By: MegoNecia
2160p (4k UHD) / WEB-DL IMDb
Star Wars: The Bad Batch S01E03

Star Wars: The Bad Batch S01E03
WEB-DL | MKV | 3840x2160 | English | H265 @ 15894 kbps | E-AC-3 @ 256 kbps | 24 min 46 s | 2.80 GiB
Subtitles: Français, Deutsch, Suomi, Español, Polski, Italiano, Nederlands, Svenska, Dansk, English, Português
Genre: Animation


Follow the elite and experimental Clones of the Bad Batch as they find their way in a rapidly changing galaxy in the aftermath of the Clone Wars.

6d45ef1682b0d4fa305f65f82a962313.mkv (2.8 GB)



General
Unique ID : 212597359338208284055915598515477005418 (0x9FF0C3155CB74446F08B60AA7FDDC46A)
Complete name : ./6d45ef1682b0d4fa305f65f82a962313.mkv
Format : Matroska
Format version : Version 4 / Version 2
File size : 2.80 GiB
Duration : 24 min 46 s
Overall bit rate : 16.2 Mb/s
Encoded date : UTC 2021-05-14 07:27:10
Writing application : mkvmerge v45.0.0 ('Heaven in Pennies') 64-bit
Writing library : libebml v1.3.10 + libmatroska v1.5.2

Video
ID : 1
Format : HEVC
Format/Info : High Efficiency Video Coding
Format profile : Main 10@L5@High
Codec ID : V_MPEGH/ISO/HEVC
Duration : 24 min 46 s
Bit rate : 15.9 Mb/s
Width : 3 840 pixels
Height : 2 160 pixels
Display aspect ratio : 16:9
Frame rate mode : Constant
Frame rate : 23.976 (24000/1001) FPS
Color space : YUV
Chroma subsampling : 4:2:0
Bit depth : 10 bits
Bits/(Pixel*Frame) : 0.080
Stream size : 2.75 GiB (98%)
Default : Yes
Forced : No
Color range : Limited
Color primaries : BT.2020
Transfer characteristics : PQ
Matrix coefficients : BT.2020 non-constant
Mastering display color primaries : R: x=0.708000 y=0.292000, G: x=0.170000 y=0.797000, B: x=0.131000 y=0.046000, White point: x=0.312700 y=0.329000
Mastering display luminance : min: 0.0001 cd/m2, max: 1000.0000 cd/m2

Audio
ID : 2
Format : E-AC-3
Format/Info : Enhanced Audio Coding 3
Format settings, Endianness : Big
Codec ID : A_EAC3
Duration : 24 min 46 s
Bit rate mode : Constant
Bit rate : 256 kb/s
Channel(s) : 6 channels
Channel positions : Front: L C R, Side: L R, LFE
Sampling rate : 48.0 kHz
Frame rate : 187.500 FPS (256 SPF)
Compression mode : Lossy
Stream size : 45.4 MiB (2%)
Title : English
Language : English
Service kind : Complete Main
Default : No
Forced : No

Text #1
ID : 3
Format : UTF-8
Codec ID : S_TEXT/UTF8
Codec ID/Info : UTF-8 Plain Text
Duration : 24 min 9 s
Bit rate : 38 b/s
Count of elements : 192
Stream size : 6.76 KiB (0%)
Title : Dutch
Language : Dutch
Default : No
Forced : No

Text #2
ID : 4
Format : UTF-8
Codec ID : S_TEXT/UTF8
Codec ID/Info : UTF-8 Plain Text
Duration : 24 min 9 s
Bit rate : 49 b/s
Count of elements : 241
Stream size : 8.76 KiB (0%)
Title : Italian
Language : Italian
Default : No
Forced : No

Text #3
ID : 5
Format : UTF-8
Codec ID : S_TEXT/UTF8
Codec ID/Info : UTF-8 Plain Text
Duration : 24 min 12 s
Bit rate : 45 b/s
Count of elements : 240
Stream size : 8.03 KiB (0%)
Title : Danish
Language : Danish
Default : No
Forced : No

Text #4
ID : 6
Format : UTF-8
Codec ID : S_TEXT/UTF8
Codec ID/Info : UTF-8 Plain Text
Duration : 24 min 9 s
Bit rate : 46 b/s
Count of elements : 238
Stream size : 8.29 KiB (0%)
Title : Brazilian Portuguese
Language : Portuguese
Default : No
Forced : No

Text #5
ID : 7
Format : UTF-8
Codec ID : S_TEXT/UTF8
Codec ID/Info : UTF-8 Plain Text
Duration : 24 min 23 s
Bit rate : 43 b/s
Count of elements : 244
Stream size : 7.78 KiB (0%)
Title : Polish
Language : Polish
Default : No
Forced : No

Text #6
ID : 8
Format : UTF-8
Codec ID : S_TEXT/UTF8
Codec ID/Info : UTF-8 Plain Text
Duration : 24 min 12 s
Bit rate : 45 b/s
Count of elements : 243
Stream size : 8.00 KiB (0%)
Title : Norwegian
Language : Norwegian
Default : No
Forced : No

Text #7
ID : 9
Format : UTF-8
Codec ID : S_TEXT/UTF8
Codec ID/Info : UTF-8 Plain Text
Duration : 24 min 12 s
Bit rate : 46 b/s
Count of elements : 232
Stream size : 8.31 KiB (0%)
Title : European Spanish
Language : Spanish
Default : No
Forced : No

Text #8
ID : 10
Format : UTF-8
Codec ID : S_TEXT/UTF8
Codec ID/Info : UTF-8 Plain Text
Duration : 24 min 9 s
Bit rate : 45 b/s
Count of elements : 242
Stream size : 8.07 KiB (0%)
Title : French
Language : French
Default : No
Forced : No

Text #9
ID : 11
Format : UTF-8
Codec ID : S_TEXT/UTF8
Codec ID/Info : UTF-8 Plain Text
Duration : 23 min 8 s
Bit rate : 47 b/s
Count of elements : 241
Stream size : 8.13 KiB (0%)
Title : English
Language : English
Default : No
Forced : No

Text #10
ID : 12
Format : UTF-8
Codec ID : S_TEXT/UTF8
Codec ID/Info : UTF-8 Plain Text
Duration : 24 min 9 s
Bit rate : 42 b/s
Count of elements : 240
Stream size : 7.46 KiB (0%)
Title : Finnish
Language : Finnish
Default : No
Forced : No

Text #11
ID : 13
Format : UTF-8
Codec ID : S_TEXT/UTF8
Codec ID/Info : UTF-8 Plain Text
Duration : 24 min 9 s
Bit rate : 45 b/s
Count of elements : 235
Stream size : 8.09 KiB (0%)
Title : German
Language : German
Default : No
Forced : No

Text #12
ID : 14
Format : UTF-8
Codec ID : S_TEXT/UTF8
Codec ID/Info : UTF-8 Plain Text
Duration : 24 min 9 s
Bit rate : 44 b/s
Count of elements : 235
Stream size : 7.87 KiB (0%)
Title : Spanish
Language : Spanish
Default : No
Forced : No

Text #13
ID : 15
Format : UTF-8
Codec ID : S_TEXT/UTF8
Codec ID/Info : UTF-8 Plain Text
Duration : 24 min 12 s
Bit rate : 49 b/s
Count of elements : 243
Stream size : 8.70 KiB (0%)
Title : Portuguese
Language : Portuguese
Default : No
Forced : No

Text #14
ID : 16
Format : UTF-8
Codec ID : S_TEXT/UTF8
Codec ID/Info : UTF-8 Plain Text
Duration : 24 min 12 s
Bit rate : 46 b/s
Count of elements : 243
Stream size : 8.25 KiB (0%)
Title : Swedish
Language : Swedish
Default : No
Forced : No

Text #15
ID : 17
Format : UTF-8
Codec ID : S_TEXT/UTF8
Codec ID/Info : UTF-8 Plain Text
Duration : 23 min 8 s
Bit rate : 51 b/s
Count of elements : 279
Stream size : 8.81 KiB (0%)
Title : English [SDH]
Language : English
Default : No
Forced : No





Star Wars: The Bad Batch S01E03


Star Wars: The Bad Batch S01E03


Star Wars: The Bad Batch S01E03


Star Wars: The Bad Batch S01E03


Star Wars: The Bad Batch S01E03

All episodes