Featured TV Shows


The Bad Batch S01E04

Posted By: MegoNecia
2160p (4k UHD) / WEB-DL IMDb
The Bad Batch S01E04

The Bad Batch S01E04
WEB-DL | MKV | 3840x2160 | English | H265 @ 15761 kbps | E-AC-3 @ 256 kbps | 23 min 6 s | 2.59 GiB
Subtitles: Français, Deutsch, Suomi, Español, Polski, Italiano, Nederlands, Svenska, Dansk, English, Português
Genre: Animation


Follow the elite and experimental Clones of the Bad Batch as they find their way in a rapidly changing galaxy in the aftermath of the Clone Wars.

Star.Wars.The.Bad.Batch.S01E04.Cornered.2160p.DSNP.WEB-DL.DDP5.1.HDR.HEVC-E.N.D.mkv (2.6 GB)



General
Unique ID : 60924544650975367306981642770703421063 (0x2DD5A3F718C4170A0875899BA0038E87)
Complete name : ./Star.Wars.The.Bad.Batch.S01E04.Cornered.2160p.DSNP.WEB-DL.DDP5.1.HDR.HEVC-E.N.D.mkv
Format : Matroska
Format version : Version 4 / Version 2
File size : 2.59 GiB
Duration : 23 min 6 s
Overall bit rate : 16.0 Mb/s
Encoded date : UTC 2021-05-21 08:00:00
Writing application : mkvmerge v50.0.0 ('Awakenings') 64-bit
Writing library : libebml v1.4.0 + libmatroska v1.6.2

Video
ID : 1
Format : HEVC
Format/Info : High Efficiency Video Coding
Format profile : Main 10@L5@High
Codec ID : V_MPEGH/ISO/HEVC
Duration : 23 min 6 s
Bit rate : 15.8 Mb/s
Width : 3 840 pixels
Height : 2 160 pixels
Display aspect ratio : 16:9
Frame rate mode : Constant
Frame rate : 23.976 (24000/1001) FPS
Color space : YUV
Chroma subsampling : 4:2:0
Bit depth : 10 bits
Bits/(Pixel*Frame) : 0.079
Stream size : 2.54 GiB (98%)
Default : Yes
Forced : No
Color range : Limited
Color primaries : BT.2020
Transfer characteristics : PQ
Matrix coefficients : BT.2020 non-constant
Mastering display color primaries : R: x=0.708000 y=0.292000, G: x=0.170000 y=0.797000, B: x=0.131000 y=0.046000, White point: x=0.312700 y=0.329000
Mastering display luminance : min: 0.0001 cd/m2, max: 1000.0000 cd/m2

Audio
ID : 2
Format : E-AC-3
Format/Info : Enhanced Audio Coding 3
Format settings, Endianness : Big
Codec ID : A_EAC3
Duration : 23 min 6 s
Bit rate mode : Constant
Bit rate : 256 kb/s
Channel(s) : 6 channels
Channel positions : Front: L C R, Side: L R, LFE
Sampling rate : 48.0 kHz
Frame rate : 187.500 FPS (256 SPF)
Compression mode : Lossy
Stream size : 42.3 MiB (2%)
Title : English
Language : English
Service kind : Complete Main
Default : No
Forced : No

Text #1
ID : 3
Format : UTF-8
Codec ID : S_TEXT/UTF8
Codec ID/Info : UTF-8 Plain Text
Duration : 22 min 29 s
Bit rate : 42 b/s
Count of elements : 217
Stream size : 7.03 KiB (0%)
Title : Brazilian Portuguese
Language : Portuguese
Default : No
Forced : No

Text #2
ID : 4
Format : UTF-8
Codec ID : S_TEXT/UTF8
Codec ID/Info : UTF-8 Plain Text
Duration : 22 min 32 s
Bit rate : 43 b/s
Count of elements : 223
Stream size : 7.19 KiB (0%)
Title : Danish
Language : Danish
Default : No
Forced : No

Text #3
ID : 5
Format : UTF-8
Codec ID : S_TEXT/UTF8
Codec ID/Info : UTF-8 Plain Text
Duration : 22 min 29 s
Bit rate : 44 b/s
Count of elements : 224
Stream size : 7.40 KiB (0%)
Title : German
Language : German
Default : No
Forced : No

Text #4
ID : 6
Format : UTF-8
Codec ID : S_TEXT/UTF8
Codec ID/Info : UTF-8 Plain Text
Duration : 21 min 30 s
Bit rate : 56 b/s
Count of elements : 311
Stream size : 8.84 KiB (0%)
Title : English [SDH]
Language : English
Default : No
Forced : No

Text #5
ID : 7
Format : UTF-8
Codec ID : S_TEXT/UTF8
Codec ID/Info : UTF-8 Plain Text
Duration : 21 min 30 s
Bit rate : 45 b/s
Count of elements : 235
Stream size : 7.17 KiB (0%)
Title : English
Language : English
Default : No
Forced : No

Text #6
ID : 8
Format : UTF-8
Codec ID : S_TEXT/UTF8
Codec ID/Info : UTF-8 Plain Text
Duration : 22 min 32 s
Bit rate : 43 b/s
Count of elements : 218
Stream size : 7.10 KiB (0%)
Title : European Spanish
Language : Spanish
Default : No
Forced : No

Text #7
ID : 9
Format : UTF-8
Codec ID : S_TEXT/UTF8
Codec ID/Info : UTF-8 Plain Text
Duration : 22 min 29 s
Bit rate : 39 b/s
Count of elements : 221
Stream size : 6.47 KiB (0%)
Title : Finnish
Language : Finnish
Default : No
Forced : No

Text #8
ID : 10
Format : UTF-8
Codec ID : S_TEXT/UTF8
Codec ID/Info : UTF-8 Plain Text
Duration : 22 min 29 s
Bit rate : 43 b/s
Count of elements : 225
Stream size : 7.08 KiB (0%)
Title : French
Language : French
Default : No
Forced : No

Text #9
ID : 11
Format : UTF-8
Codec ID : S_TEXT/UTF8
Codec ID/Info : UTF-8 Plain Text
Duration : 22 min 29 s
Bit rate : 44 b/s
Count of elements : 224
Stream size : 7.25 KiB (0%)
Title : Italian
Language : Italian
Default : No
Forced : No

Text #10
ID : 12
Format : UTF-8
Codec ID : S_TEXT/UTF8
Codec ID/Info : UTF-8 Plain Text
Duration : 22 min 29 s
Bit rate : 36 b/s
Count of elements : 185
Stream size : 6.07 KiB (0%)
Title : Dutch
Language : Dutch
Default : No
Forced : No

Text #11
ID : 13
Format : UTF-8
Codec ID : S_TEXT/UTF8
Codec ID/Info : UTF-8 Plain Text
Duration : 22 min 32 s
Bit rate : 43 b/s
Count of elements : 226
Stream size : 7.19 KiB (0%)
Title : Norwegian
Language : Norwegian
Default : No
Forced : No

Text #12
ID : 14
Format : UTF-8
Codec ID : S_TEXT/UTF8
Codec ID/Info : UTF-8 Plain Text
Duration : 22 min 43 s
Bit rate : 41 b/s
Count of elements : 227
Stream size : 6.85 KiB (0%)
Title : Polish
Language : Polish
Default : No
Forced : No

Text #13
ID : 15
Format : UTF-8
Codec ID : S_TEXT/UTF8
Codec ID/Info : UTF-8 Plain Text
Duration : 22 min 32 s
Bit rate : 45 b/s
Count of elements : 222
Stream size : 7.49 KiB (0%)
Title : Portuguese
Language : Portuguese
Default : No
Forced : No

Text #14
ID : 16
Format : UTF-8
Codec ID : S_TEXT/UTF8
Codec ID/Info : UTF-8 Plain Text
Duration : 22 min 29 s
Bit rate : 41 b/s
Count of elements : 219
Stream size : 6.78 KiB (0%)
Title : Spanish
Language : Spanish
Default : No
Forced : No

Text #15
ID : 17
Format : UTF-8
Codec ID : S_TEXT/UTF8
Codec ID/Info : UTF-8 Plain Text
Duration : 22 min 32 s
Bit rate : 42 b/s
Count of elements : 226
Stream size : 7.00 KiB (0%)
Title : Swedish
Language : Swedish
Default : No
Forced : No





The Bad Batch S01E04


The Bad Batch S01E04


The Bad Batch S01E04


The Bad Batch S01E04


The Bad Batch S01E04

All episodes