Featured TV Shows


The Bad Batch S01E05

Posted By: Tavaz
720p (HD) / WEBRip IMDb
The Bad Batch S01E05

The Bad Batch S01E05
WEBRip | MKV | 1280x720 | English | H264 @ 3225 kbps | E-AC-3 @ 256 kbps | 22 min 37 s | 564 MiB
Subtitles: Français, Deutsch, Suomi, Español, Svenska, Italiano, Nederlands, Polski, Dansk, English, Português
Genre: Animation


Follow the elite and experimental Clones of the Bad Batch as they find their way in a rapidly changing galaxy in the aftermath of the Clone Wars.

77c30ed9e0f04d12a98b28355cc3437a.mkv (564.0 MB)



General
Unique ID : 260703380804637331433987677117725667827 (0xC421A50F9C91250FB84C02CF40D5F1F3)
Complete name : ./77c30ed9e0f04d12a98b28355cc3437a.mkv
Format : Matroska
Format version : Version 4 / Version 2
File size : 564 MiB
Duration : 22 min 37 s
Overall bit rate mode : Variable
Overall bit rate : 3 485 kb/s
Encoded date : UTC 2021-05-28 07:04:22
Writing application : mkvmerge v45.0.0 ('Heaven in Pennies') 64-bit
Writing library : libebml v1.3.10 + libmatroska v1.5.2

Video
ID : 1
Format : AVC
Format/Info : Advanced Video Codec
Format profile : High@L3.1
Format settings : CABAC / 4 Ref Frames
Format settings, CABAC : Yes
Format settings, RefFrames : 4 frames
Codec ID : V_MPEG4/ISO/AVC
Duration : 22 min 37 s
Bit rate mode : Variable
Bit rate : 3 225 kb/s
Maximum bit rate : 6 375 kb/s
Width : 1 280 pixels
Height : 720 pixels
Display aspect ratio : 16:9
Frame rate mode : Constant
Frame rate : 23.976 (24000/1001) FPS
Color space : YUV
Chroma subsampling : 4:2:0
Bit depth : 8 bits
Scan type : Progressive
Bits/(Pixel*Frame) : 0.146
Stream size : 522 MiB (93%)
Default : Yes
Forced : No
Color range : Limited
Color primaries : BT.709
Transfer characteristics : BT.709
Matrix coefficients : BT.709

Audio
ID : 2
Format : E-AC-3
Format/Info : Enhanced Audio Coding 3
Format settings, Endianness : Big
Codec ID : A_EAC3
Duration : 22 min 37 s
Bit rate mode : Constant
Bit rate : 256 kb/s
Channel(s) : 6 channels
Channel positions : Front: L C R, Side: L R, LFE
Sampling rate : 48.0 kHz
Frame rate : 187.500 FPS (256 SPF)
Compression mode : Lossy
Stream size : 41.4 MiB (7%)
Title : English
Language : English
Service kind : Complete Main
Default : No
Forced : No

Text #1
ID : 3
Format : UTF-8
Codec ID : S_TEXT/UTF8
Codec ID/Info : UTF-8 Plain Text
Duration : 22 min 0 s
Bit rate : 40 b/s
Count of elements : 208
Stream size : 6.46 KiB (0%)
Title : Dutch
Language : Dutch
Default : No
Forced : No

Text #2
ID : 4
Format : UTF-8
Codec ID : S_TEXT/UTF8
Codec ID/Info : UTF-8 Plain Text
Duration : 22 min 0 s
Bit rate : 45 b/s
Count of elements : 223
Stream size : 7.27 KiB (0%)
Title : Spanish
Language : Spanish
Default : No
Forced : No

Text #3
ID : 5
Format : UTF-8
Codec ID : S_TEXT/UTF8
Codec ID/Info : UTF-8 Plain Text
Duration : 21 min 10 s
Bit rate : 48 b/s
Count of elements : 247
Stream size : 7.54 KiB (0%)
Title : English
Language : English
Default : No
Forced : No

Text #4
ID : 6
Format : UTF-8
Codec ID : S_TEXT/UTF8
Codec ID/Info : UTF-8 Plain Text
Duration : 22 min 4 s
Bit rate : 49 b/s
Count of elements : 241
Stream size : 8.03 KiB (0%)
Title : Portuguese
Language : Portuguese
Default : No
Forced : No

Text #5
ID : 7
Format : UTF-8
Codec ID : S_TEXT/UTF8
Codec ID/Info : UTF-8 Plain Text
Duration : 22 min 0 s
Bit rate : 47 b/s
Count of elements : 239
Stream size : 7.73 KiB (0%)
Title : German
Language : German
Default : No
Forced : No

Text #6
ID : 8
Format : UTF-8
Codec ID : S_TEXT/UTF8
Codec ID/Info : UTF-8 Plain Text
Duration : 22 min 4 s
Bit rate : 46 b/s
Count of elements : 241
Stream size : 7.55 KiB (0%)
Title : Swedish
Language : Swedish
Default : No
Forced : No

Text #7
ID : 9
Format : UTF-8
Codec ID : S_TEXT/UTF8
Codec ID/Info : UTF-8 Plain Text
Duration : 21 min 10 s
Bit rate : 60 b/s
Count of elements : 314
Stream size : 9.31 KiB (0%)
Title : English [SDH]
Language : English
Default : No
Forced : No

Text #8
ID : 10
Format : UTF-8
Codec ID : S_TEXT/UTF8
Codec ID/Info : UTF-8 Plain Text
Duration : 22 min 0 s
Bit rate : 48 b/s
Count of elements : 240
Stream size : 7.82 KiB (0%)
Title : French
Language : French
Default : No
Forced : No

Text #9
ID : 11
Format : UTF-8
Codec ID : S_TEXT/UTF8
Codec ID/Info : UTF-8 Plain Text
Duration : 22 min 0 s
Bit rate : 46 b/s
Count of elements : 233
Stream size : 7.52 KiB (0%)
Title : Brazilian Portuguese
Language : Portuguese
Default : No
Forced : No

Text #10
ID : 12
Format : UTF-8
Codec ID : S_TEXT/UTF8
Codec ID/Info : UTF-8 Plain Text
Duration : 22 min 4 s
Bit rate : 47 b/s
Count of elements : 239
Stream size : 7.76 KiB (0%)
Title : Danish
Language : Danish
Default : No
Forced : No

Text #11
ID : 13
Format : UTF-8
Codec ID : S_TEXT/UTF8
Codec ID/Info : UTF-8 Plain Text
Duration : 22 min 14 s
Bit rate : 45 b/s
Count of elements : 241
Stream size : 7.40 KiB (0%)
Title : Polish
Language : Polish
Default : No
Forced : No

Text #12
ID : 14
Format : UTF-8
Codec ID : S_TEXT/UTF8
Codec ID/Info : UTF-8 Plain Text
Duration : 22 min 0 s
Bit rate : 46 b/s
Count of elements : 233
Stream size : 7.50 KiB (0%)
Title : Italian
Language : Italian
Default : No
Forced : No

Text #13
ID : 15
Format : UTF-8
Codec ID : S_TEXT/UTF8
Codec ID/Info : UTF-8 Plain Text
Duration : 22 min 4 s
Bit rate : 46 b/s
Count of elements : 241
Stream size : 7.56 KiB (0%)
Title : Norwegian
Language : Norwegian
Default : No
Forced : No

Text #14
ID : 16
Format : UTF-8
Codec ID : S_TEXT/UTF8
Codec ID/Info : UTF-8 Plain Text
Duration : 22 min 0 s
Bit rate : 42 b/s
Count of elements : 238
Stream size : 6.88 KiB (0%)
Title : Finnish
Language : Finnish
Default : No
Forced : No

Text #15
ID : 17
Format : UTF-8
Codec ID : S_TEXT/UTF8
Codec ID/Info : UTF-8 Plain Text
Duration : 22 min 4 s
Bit rate : 48 b/s
Count of elements : 219
Stream size : 7.82 KiB (0%)
Title : European Spanish
Language : Spanish
Default : No
Forced : No





The Bad Batch S01E05


The Bad Batch S01E05


The Bad Batch S01E05


The Bad Batch S01E05


The Bad Batch S01E05

All episodes