Featured TV Shows


The Bad Batch S01E05

Posted By: Tavaz
1080p (FullHD) / WEBRip IMDb
The Bad Batch S01E05

The Bad Batch S01E05
WEBRip | MKV | 1920x1080 | Français / English | H264 @ 5766 kbps | E-AC-3 @ 256 kbps | 25 min 21 s | 1.11 GiB
Subtitles: Français, English
Genre: Animation


Follow the elite and experimental Clones of the Bad Batch as they find their way in a rapidly changing galaxy in the aftermath of the Clone Wars.

f4c54b39cbc74e5d8edffa66a2c39398.mkv (1.1 GB)



General
Unique ID : 12259899263994537126648915990665534514 (0x9392BB3B3756A14199E58DE63889C32)
Complete name : ./f4c54b39cbc74e5d8edffa66a2c39398.mkv
Format : Matroska
Format version : Version 4 / Version 2
File size : 1.11 GiB
Duration : 25 min 21 s
Overall bit rate mode : Variable
Overall bit rate : 6 278 kb/s
Encoded date : UTC 2021-05-28 07:01:32
Writing application : mkvmerge v57.0.0 ('Till The End') 64-bit
Writing library : libebml v1.4.2 + libmatroska v1.6.4

Video
ID : 1
Format : AVC
Format/Info : Advanced Video Codec
Format profile : High@L4
Format settings : CABAC / 4 Ref Frames
Format settings, CABAC : Yes
Format settings, RefFrames : 4 frames
Codec ID : V_MPEG4/ISO/AVC
Duration : 25 min 21 s
Bit rate mode : Variable
Bit rate : 5 766 kb/s
Maximum bit rate : 12.7 Mb/s
Width : 1 920 pixels
Height : 1 080 pixels
Display aspect ratio : 16:9
Frame rate mode : Constant
Frame rate : 23.976 (24000/1001) FPS
Color space : YUV
Chroma subsampling : 4:2:0
Bit depth : 8 bits
Scan type : Progressive
Bits/(Pixel*Frame) : 0.116
Stream size : 1.02 GiB (92%)
Default : Yes
Forced : No
Color range : Limited
Color primaries : BT.709
Transfer characteristics : BT.709
Matrix coefficients : BT.709

Audio #1
ID : 2
Format : E-AC-3
Format/Info : Enhanced Audio Coding 3
Format settings, Endianness : Big
Codec ID : A_EAC3
Duration : 25 min 21 s
Bit rate mode : Constant
Bit rate : 256 kb/s
Channel(s) : 6 channels
Channel positions : Front: L C R, Side: L R, LFE
Sampling rate : 48.0 kHz
Frame rate : 187.500 FPS (256 SPF)
Compression mode : Lossy
Stream size : 46.4 MiB (4%)
Title : French
Language : French
Service kind : Complete Main
Default : Yes
Forced : No

Audio #2
ID : 3
Format : E-AC-3
Format/Info : Enhanced Audio Coding 3
Format settings, Endianness : Big
Codec ID : A_EAC3
Duration : 25 min 21 s
Bit rate mode : Constant
Bit rate : 256 kb/s
Channel(s) : 6 channels
Channel positions : Front: L C R, Side: L R, LFE
Sampling rate : 48.0 kHz
Frame rate : 187.500 FPS (256 SPF)
Compression mode : Lossy
Stream size : 46.4 MiB (4%)
Title : English
Language : English
Service kind : Complete Main
Default : No
Forced : No

Text #1
ID : 4
Format : UTF-8
Codec ID : S_TEXT/UTF8
Codec ID/Info : UTF-8 Plain Text
Duration : 22 min 0 s
Bit rate : 0 b/s
Count of elements : 3
Stream size : 63.0 Bytes (0%)
Title : French (Forced)
Language : French
Default : Yes
Forced : Yes

Text #2
ID : 5
Format : UTF-8
Codec ID : S_TEXT/UTF8
Codec ID/Info : UTF-8 Plain Text
Duration : 22 min 0 s
Bit rate : 48 b/s
Count of elements : 240
Stream size : 7.82 KiB (0%)
Title : French
Language : French
Default : No
Forced : No

Text #3
ID : 6
Format : UTF-8
Codec ID : S_TEXT/UTF8
Codec ID/Info : UTF-8 Plain Text
Duration : 21 min 10 s
Bit rate : 60 b/s
Count of elements : 314
Stream size : 9.31 KiB (0%)
Title : English (SDH)
Language : English
Default : No
Forced : No





The Bad Batch S01E05


The Bad Batch S01E05


The Bad Batch S01E05


The Bad Batch S01E05


The Bad Batch S01E05

All episodes