Featured TV Shows


The Bad Batch S01E07

Posted By: Tavaz
1080p (FullHD) / WEBRip IMDb
The Bad Batch S01E07

The Bad Batch S01E07
WEBRip | MKV | 1920x1080 | Français / English | H264 @ 6407 kbps | E-AC-3 @ 256 kbps | 27 min 12 s | 1.31 GiB
Subtitles: Français, English
Genre: Animation


Follow the elite and experimental Clones of the Bad Batch as they find their way in a rapidly changing galaxy in the aftermath of the Clone Wars.

c8b9c673c7ed4e0abcf805a027ba75d6.mkv (1.3 GB)



General
Unique ID : 274242312418518582504814827950408816458 (0xCE5125ED30A4FD564955EB966BCD574A)
Complete name : ./c8b9c673c7ed4e0abcf805a027ba75d6.mkv
Format : Matroska
Format version : Version 4 / Version 2
File size : 1.31 GiB
Duration : 27 min 12 s
Overall bit rate mode : Variable
Overall bit rate : 6 919 kb/s
Encoded date : UTC 2021-06-11 07:01:43
Writing application : mkvmerge v57.0.0 ('Till The End') 64-bit
Writing library : libebml v1.4.2 + libmatroska v1.6.4

Video
ID : 1
Format : AVC
Format/Info : Advanced Video Codec
Format profile : High@L4
Format settings : CABAC / 4 Ref Frames
Format settings, CABAC : Yes
Format settings, RefFrames : 4 frames
Codec ID : V_MPEG4/ISO/AVC
Duration : 27 min 11 s
Bit rate mode : Variable
Bit rate : 6 407 kb/s
Maximum bit rate : 12.7 Mb/s
Width : 1 920 pixels
Height : 1 080 pixels
Display aspect ratio : 16:9
Frame rate mode : Constant
Frame rate : 23.976 (24000/1001) FPS
Color space : YUV
Chroma subsampling : 4:2:0
Bit depth : 8 bits
Scan type : Progressive
Bits/(Pixel*Frame) : 0.129
Stream size : 1.22 GiB (93%)
Default : Yes
Forced : No
Color range : Limited
Color primaries : BT.709
Transfer characteristics : BT.709
Matrix coefficients : BT.709

Audio #1
ID : 2
Format : E-AC-3
Format/Info : Enhanced Audio Coding 3
Format settings, Endianness : Big
Codec ID : A_EAC3
Duration : 27 min 12 s
Bit rate mode : Constant
Bit rate : 256 kb/s
Channel(s) : 6 channels
Channel positions : Front: L C R, Side: L R, LFE
Sampling rate : 48.0 kHz
Frame rate : 187.500 FPS (256 SPF)
Compression mode : Lossy
Stream size : 49.8 MiB (4%)
Title : French
Language : French
Service kind : Complete Main
Default : Yes
Forced : No

Audio #2
ID : 3
Format : E-AC-3
Format/Info : Enhanced Audio Coding 3
Format settings, Endianness : Big
Codec ID : A_EAC3
Duration : 27 min 12 s
Bit rate mode : Constant
Bit rate : 256 kb/s
Channel(s) : 6 channels
Channel positions : Front: L C R, Side: L R, LFE
Sampling rate : 48.0 kHz
Frame rate : 187.500 FPS (256 SPF)
Compression mode : Lossy
Stream size : 49.8 MiB (4%)
Title : English
Language : English
Service kind : Complete Main
Default : No
Forced : No

Text #1
ID : 4
Format : UTF-8
Codec ID : S_TEXT/UTF8
Codec ID/Info : UTF-8 Plain Text
Duration : 24 min 14 s
Bit rate : 47 b/s
Count of elements : 266
Stream size : 8.38 KiB (0%)
Title : French
Language : French
Default : No
Forced : No

Text #2
ID : 5
Format : UTF-8
Codec ID : S_TEXT/UTF8
Codec ID/Info : UTF-8 Plain Text
Duration : 23 min 38 s
Bit rate : 62 b/s
Count of elements : 366
Stream size : 10.7 KiB (0%)
Title : English (SDH)
Language : English
Default : No
Forced : No





The Bad Batch S01E07


The Bad Batch S01E07


The Bad Batch S01E07


The Bad Batch S01E07


The Bad Batch S01E07

All episodes