Featured TV Shows


The Bad Batch S01E08

Posted By: Tavaz
1080p (FullHD) / WEBRip IMDb
The Bad Batch S01E08

The Bad Batch S01E08
WEBRip | MKV | 1920x1080 | English | H264 @ 6561 kbps | E-AC-3 @ 256 kbps | 23 min 51 s | 1.14 GiB
Subtitles: Français, Deutsch, Suomi, Español, Polski, Italiano, Nederlands, Svenska, Dansk, English, 한국어, Português
Genre: Animation


Follow the elite and experimental Clones of the Bad Batch as they find their way in a rapidly changing galaxy in the aftermath of the Clone Wars.

184ec1d7b3d9412a984d34d1f32b7f1e.mkv (1.1 GB)



General
Unique ID : 154210000773149795152026822561898747729 (0x7403C40CDD58EB3C7125472B5530D751)
Complete name : ./184ec1d7b3d9412a984d34d1f32b7f1e.mkv
Format : Matroska
Format version : Version 4 / Version 2
File size : 1.14 GiB
Duration : 23 min 51 s
Overall bit rate mode : Variable
Overall bit rate : 6 821 kb/s
Encoded date : UTC 2021-06-18 07:03:28
Writing application : mkvmerge v50.0.0 ('Awakenings') 64-bit
Writing library : libebml v1.4.0 + libmatroska v1.6.2

Video
ID : 1
Format : AVC
Format/Info : Advanced Video Codec
Format profile : High@L4
Format settings : CABAC / 4 Ref Frames
Format settings, CABAC : Yes
Format settings, RefFrames : 4 frames
Codec ID : V_MPEG4/ISO/AVC
Duration : 23 min 51 s
Bit rate mode : Variable
Bit rate : 6 561 kb/s
Maximum bit rate : 12.7 Mb/s
Width : 1 920 pixels
Height : 1 080 pixels
Display aspect ratio : 16:9
Frame rate mode : Constant
Frame rate : 23.976 (24000/1001) FPS
Color space : YUV
Chroma subsampling : 4:2:0
Bit depth : 8 bits
Scan type : Progressive
Bits/(Pixel*Frame) : 0.132
Stream size : 1.09 GiB (96%)
Default : Yes
Forced : No
Color range : Limited
Color primaries : BT.709
Transfer characteristics : BT.709
Matrix coefficients : BT.709

Audio
ID : 2
Format : E-AC-3
Format/Info : Enhanced Audio Coding 3
Format settings, Endianness : Big
Codec ID : A_EAC3
Duration : 23 min 51 s
Bit rate mode : Constant
Bit rate : 256 kb/s
Channel(s) : 6 channels
Channel positions : Front: L C R, Side: L R, LFE
Sampling rate : 48.0 kHz
Frame rate : 187.500 FPS (256 SPF)
Compression mode : Lossy
Stream size : 43.7 MiB (4%)
Title : English
Language : English
Service kind : Complete Main
Default : No
Forced : No

Text #1
ID : 3
Format : UTF-8
Codec ID : S_TEXT/UTF8
Codec ID/Info : UTF-8 Plain Text
Duration : 23 min 14 s
Bit rate : 48 b/s
Count of elements : 255
Stream size : 8.23 KiB (0%)
Title : Brazilian Portuguese
Language : Portuguese
Default : No
Forced : No

Text #2
ID : 4
Format : UTF-8
Codec ID : S_TEXT/UTF8
Codec ID/Info : UTF-8 Plain Text
Duration : 23 min 17 s
Bit rate : 49 b/s
Count of elements : 266
Stream size : 8.38 KiB (0%)
Title : Danish
Language : Danish
Default : No
Forced : No

Text #3
ID : 5
Format : UTF-8
Codec ID : S_TEXT/UTF8
Codec ID/Info : UTF-8 Plain Text
Duration : 23 min 14 s
Bit rate : 49 b/s
Count of elements : 261
Stream size : 8.41 KiB (0%)
Title : German
Language : German
Default : No
Forced : No

Text #4
ID : 6
Format : UTF-8
Codec ID : S_TEXT/UTF8
Codec ID/Info : UTF-8 Plain Text
Duration : 22 min 24 s
Bit rate : 62 b/s
Count of elements : 331
Stream size : 10.3 KiB (0%)
Title : English [SDH]
Language : English
Default : No
Forced : No

Text #5
ID : 7
Format : UTF-8
Codec ID : S_TEXT/UTF8
Codec ID/Info : UTF-8 Plain Text
Duration : 22 min 24 s
Bit rate : 50 b/s
Count of elements : 275
Stream size : 8.33 KiB (0%)
Title : English
Language : English
Default : No
Forced : No

Text #6
ID : 8
Format : UTF-8
Codec ID : S_TEXT/UTF8
Codec ID/Info : UTF-8 Plain Text
Duration : 23 min 17 s
Bit rate : 49 b/s
Count of elements : 249
Stream size : 8.50 KiB (0%)
Title : European Spanish
Language : Spanish
Default : No
Forced : No

Text #7
ID : 9
Format : UTF-8
Codec ID : S_TEXT/UTF8
Codec ID/Info : UTF-8 Plain Text
Duration : 23 min 14 s
Bit rate : 45 b/s
Count of elements : 260
Stream size : 7.69 KiB (0%)
Title : Finnish
Language : Finnish
Default : No
Forced : No

Text #8
ID : 10
Format : UTF-8
Codec ID : S_TEXT/UTF8
Codec ID/Info : UTF-8 Plain Text
Duration : 22 min 54 s
Bit rate : 49 b/s
Count of elements : 262
Stream size : 8.38 KiB (0%)
Title : French
Language : French
Default : No
Forced : No

Text #9
ID : 11
Format : UTF-8
Codec ID : S_TEXT/UTF8
Codec ID/Info : UTF-8 Plain Text
Duration : 23 min 14 s
Bit rate : 47 b/s
Count of elements : 250
Stream size : 8.05 KiB (0%)
Title : Italian
Language : Italian
Default : No
Forced : No

Text #10
ID : 12
Format : UTF-8
Codec ID : S_TEXT/UTF8
Codec ID/Info : UTF-8 Plain Text
Duration : 23 min 28 s
Bit rate : 51 b/s
Count of elements : 267
Stream size : 8.86 KiB (0%)
Title : Korean
Language : Korean
Default : No
Forced : No

Text #11
ID : 13
Format : UTF-8
Codec ID : S_TEXT/UTF8
Codec ID/Info : UTF-8 Plain Text
Duration : 23 min 14 s
Bit rate : 46 b/s
Count of elements : 234
Stream size : 7.94 KiB (0%)
Title : Dutch
Language : Dutch
Default : No
Forced : No

Text #12
ID : 14
Format : UTF-8
Codec ID : S_TEXT/UTF8
Codec ID/Info : UTF-8 Plain Text
Duration : 23 min 17 s
Bit rate : 47 b/s
Count of elements : 266
Stream size : 8.16 KiB (0%)
Title : Norwegian
Language : Norwegian
Default : No
Forced : No

Text #13
ID : 15
Format : UTF-8
Codec ID : S_TEXT/UTF8
Codec ID/Info : UTF-8 Plain Text
Duration : 23 min 28 s
Bit rate : 46 b/s
Count of elements : 264
Stream size : 8.05 KiB (0%)
Title : Polish
Language : Polish
Default : No
Forced : No

Text #14
ID : 16
Format : UTF-8
Codec ID : S_TEXT/UTF8
Codec ID/Info : UTF-8 Plain Text
Duration : 23 min 17 s
Bit rate : 51 b/s
Count of elements : 264
Stream size : 8.72 KiB (0%)
Title : Portuguese
Language : Portuguese
Default : No
Forced : No

Text #15
ID : 17
Format : UTF-8
Codec ID : S_TEXT/UTF8
Codec ID/Info : UTF-8 Plain Text
Duration : 22 min 54 s
Bit rate : 47 b/s
Count of elements : 251
Stream size : 8.01 KiB (0%)
Title : Spanish
Language : Spanish
Default : No
Forced : No

Text #16
ID : 18
Format : UTF-8
Codec ID : S_TEXT/UTF8
Codec ID/Info : UTF-8 Plain Text
Duration : 23 min 17 s
Bit rate : 49 b/s
Count of elements : 266
Stream size : 8.43 KiB (0%)
Title : Swedish
Language : Swedish
Default : No
Forced : No





The Bad Batch S01E08


The Bad Batch S01E08


The Bad Batch S01E08


The Bad Batch S01E08


The Bad Batch S01E08

All episodes