Featured TV Shows


Star Wars: The Clone Wars S07E01

Posted By: Tavaz
720p (HD) / WEB-DL IMDb
Star Wars: The Clone Wars S07E01

Star Wars: The Clone Wars S07E01
WEB-DL | MKV | 1280x720 | English | H264 @ 4237 kbps | E-AC-3 @ 256 kbps | 26 min 57 s | 867 MiB
Subtitles: Français, Deutsch, Suomi, Español, Polski, Italiano, Nederlands, Svenska, Dansk, English, Português
Genre: Animation


Yoda, Obi-Wan Kenobi, Anakin Skywalker, Mace Windu and other Jedi Knights lead the Grand Army of the Republic against the droid army of the Separatists.

Star.Wars.The.Clone.Wars.S07E01.The.Bad.Batch.720p.DSNP.WEB-DL.DDP5.1.H.264-SPiRiT.mkv (768.8 MB)
Star.Wars.The.Clone.Wars.S07E09.Old.Friends.Not.Forgotten.720p.DSNP.WEB-DL.DDP5.1.H.264-SPiRiT.mkv (866.8 MB)
Star.Wars.The.Clone.Wars.S07E08.Together.Again.720p.DSNP.WEB-DL.DDP5.1.H.264-SPiRiT.mkv (730.6 MB)
Star.Wars.The.Clone.Wars.S07E11.Shattered.720p.DSNP.WEB-DL.DDP5.1.H.264-SPiRiT.mkv (779.6 MB)
Star.Wars.The.Clone.Wars.S07E02.A.Distant.Echo.720p.DSNP.WEB-DL.DDP5.1.H.264-SPiRiT.mkv (758.1 MB)
Star.Wars.The.Clone.Wars.S07E05.Gone.with.a.Trace.720p.DSNP.WEB-DL.DDP5.1.H.264-SPiRiT.mkv (713.7 MB)
Star.Wars.The.Clone.Wars.S07E06.Deal.No.Deal.720p.DSNP.WEB-DL.DDP5.1.H.264-SPiRiT.mkv (778.9 MB)
Star.Wars.The.Clone.Wars.S07E12.Victory.and.Death.720p.DSNP.WEB-DL.DDP5.1.H.264-SPiRiT.mkv (710.4 MB)
Star.Wars.The.Clone.Wars.S07E03.On.the.Wings.of.Keeradaks.720p.DSNP.WEB-DL.DDP5.1.H.264-SPiRiT.mkv (590.1 MB)
Star.Wars.The.Clone.Wars.S07E07.Dangerous.Debt.720p.DSNP.WEB-DL.DDP5.1.H.264-SPiRiT.mkv (686.7 MB)
Star.Wars.The.Clone.Wars.S07E10.Phantom.Apprentice.720p.DSNP.WEB-DL.DDP5.1.H.264-SPiRiT.mkv (802.5 MB)
Star.Wars.The.Clone.Wars.S07E04.Unfinished.Business.720p.DSNP.WEB-DL.DDP5.1.H.264-SPiRiT.mkv (746.0 MB)



General
Unique ID : 253046211431952817506500651143727863492 (0xBE5EED769B79AF960DAC000C7292D6C4)
Complete name : ./Star.Wars.The.Clone.Wars.S07E09.Old.Friends.Not.Forgotten.720p.DSNP.WEB-DL.DDP5.1.H.264-SPiRiT.mkv
Format : Matroska
Format version : Version 4 / Version 2
File size : 867 MiB
Duration : 26 min 57 s
Overall bit rate mode : Variable
Overall bit rate : 4 496 kb/s
Encoded date : UTC 2020-05-24 20:35:33
Writing application : mkvmerge v38.0.0 ('The Silent Type') 64-bit
Writing library : libebml v1.3.9 + libmatroska v1.5.2

Video
ID : 1
Format : AVC
Format/Info : Advanced Video Codec
Format profile : High@L3.1
Format settings : CABAC / 4 Ref Frames
Format settings, CABAC : Yes
Format settings, RefFrames : 4 frames
Codec ID : V_MPEG4/ISO/AVC
Duration : 26 min 57 s
Bit rate mode : Variable
Bit rate : 4 237 kb/s
Maximum bit rate : 6 375 kb/s
Width : 1 280 pixels
Height : 720 pixels
Display aspect ratio : 16:9
Frame rate mode : Constant
Frame rate : 23.976 (24000/1001) FPS
Color space : YUV
Chroma subsampling : 4:2:0
Bit depth : 8 bits
Scan type : Progressive
Bits/(Pixel*Frame) : 0.192
Stream size : 817 MiB (94%)
Writing library : AVC Coding
Default : Yes
Forced : No
Color range : Limited
Color primaries : BT.709
Transfer characteristics : BT.709
Matrix coefficients : BT.709

Audio
ID : 2
Format : E-AC-3
Format/Info : Enhanced Audio Coding 3
Format settings, Endianness : Big
Codec ID : A_EAC3
Duration : 26 min 57 s
Bit rate mode : Constant
Bit rate : 256 kb/s
Channel(s) : 6 channels
Channel positions : Front: L C R, Side: L R, LFE
Sampling rate : 48.0 kHz
Frame rate : 187.500 FPS (256 SPF)
Compression mode : Lossy
Stream size : 49.4 MiB (6%)
Language : English
Service kind : Complete Main
Default : Yes
Forced : No

Text #1
ID : 3
Format : UTF-8
Codec ID : S_TEXT/UTF8
Codec ID/Info : UTF-8 Plain Text
Duration : 25 min 36 s
Bit rate : 52 b/s
Count of elements : 296
Stream size : 9.88 KiB (0%)
Language : English
Default : Yes
Forced : No

Text #2
ID : 4
Format : UTF-8
Codec ID : S_TEXT/UTF8
Codec ID/Info : UTF-8 Plain Text
Duration : 26 min 21 s
Bit rate : 48 b/s
Count of elements : 265
Stream size : 9.27 KiB (0%)
Language : Danish
Default : No
Forced : No

Text #3
ID : 5
Format : UTF-8
Codec ID : S_TEXT/UTF8
Codec ID/Info : UTF-8 Plain Text
Duration : 26 min 23 s
Bit rate : 49 b/s
Count of elements : 266
Stream size : 9.60 KiB (0%)
Language : German
Default : No
Forced : No

Text #4
ID : 6
Format : UTF-8
Codec ID : S_TEXT/UTF8
Codec ID/Info : UTF-8 Plain Text
Duration : 26 min 34 s
Bit rate : 42 b/s
Count of elements : 268
Stream size : 8.36 KiB (0%)
Title : Latin American
Language : Spanish
Default : No
Forced : No

Text #5
ID : 7
Format : UTF-8
Codec ID : S_TEXT/UTF8
Codec ID/Info : UTF-8 Plain Text
Duration : 26 min 23 s
Bit rate : 47 b/s
Count of elements : 246
Stream size : 9.22 KiB (0%)
Title : European
Language : Spanish
Default : No
Forced : No

Text #6
ID : 8
Format : UTF-8
Codec ID : S_TEXT/UTF8
Codec ID/Info : UTF-8 Plain Text
Duration : 26 min 23 s
Bit rate : 44 b/s
Count of elements : 267
Stream size : 8.63 KiB (0%)
Language : Finnish
Default : No
Forced : No

Text #7
ID : 9
Format : UTF-8
Codec ID : S_TEXT/UTF8
Codec ID/Info : UTF-8 Plain Text
Duration : 26 min 23 s
Bit rate : 49 b/s
Count of elements : 267
Stream size : 9.51 KiB (0%)
Language : French
Default : No
Forced : No

Text #8
ID : 10
Format : UTF-8
Codec ID : S_TEXT/UTF8
Codec ID/Info : UTF-8 Plain Text
Duration : 26 min 23 s
Bit rate : 48 b/s
Count of elements : 267
Stream size : 9.46 KiB (0%)
Language : Italian
Default : No
Forced : No

Text #9
ID : 11
Format : UTF-8
Codec ID : S_TEXT/UTF8
Codec ID/Info : UTF-8 Plain Text
Duration : 26 min 23 s
Bit rate : 45 b/s
Count of elements : 267
Stream size : 8.84 KiB (0%)
Language : Dutch
Default : No
Forced : No

Text #10
ID : 12
Format : UTF-8
Codec ID : S_TEXT/UTF8
Codec ID/Info : UTF-8 Plain Text
Duration : 26 min 23 s
Bit rate : 47 b/s
Count of elements : 267
Stream size : 9.16 KiB (0%)
Language : Norwegian
Default : No
Forced : No

Text #11
ID : 13
Format : UTF-8
Codec ID : S_TEXT/UTF8
Codec ID/Info : UTF-8 Plain Text
Duration : 26 min 34 s
Bit rate : 46 b/s
Count of elements : 266
Stream size : 9.02 KiB (0%)
Language : Polish
Default : No
Forced : No

Text #12
ID : 14
Format : UTF-8
Codec ID : S_TEXT/UTF8
Codec ID/Info : UTF-8 Plain Text
Duration : 26 min 23 s
Bit rate : 47 b/s
Count of elements : 266
Stream size : 9.12 KiB (0%)
Title : Brazilian
Language : Portuguese
Default : No
Forced : No

Text #13
ID : 15
Format : UTF-8
Codec ID : S_TEXT/UTF8
Codec ID/Info : UTF-8 Plain Text
Duration : 26 min 23 s
Bit rate : 49 b/s
Count of elements : 267
Stream size : 9.58 KiB (0%)
Title : European
Language : Portuguese
Default : No
Forced : No

Text #14
ID : 16
Format : UTF-8
Codec ID : S_TEXT/UTF8
Codec ID/Info : UTF-8 Plain Text
Duration : 26 min 23 s
Bit rate : 44 b/s
Count of elements : 267
Stream size : 8.66 KiB (0%)
Language : Swedish
Default : No
Forced : No





Star Wars: The Clone Wars S07E01


Star Wars: The Clone Wars S07E01


Star Wars: The Clone Wars S07E01


Star Wars: The Clone Wars S07E01


Star Wars: The Clone Wars S07E01

All episodes