Featured TV Shows


Stargate Origins S01E01

Posted By: Tavaz
SD / WEBRip IMDb
Stargate Origins S01E01

Stargate Origins S01E01
WEBRip | MKV | 640x320 | English | H264 @ 839 kbps | AAC @ 125 kbps | 10 min 6 s | 69.9 MiB

Follow Catherine Langford, the young woman who witnessed her father uncover the Stargate in Giza in 1928, as she embarks on an unexpected adventure to unlock the mystery of what lies beyond the Stargate in order to save Earth from unimaginable darkness.

stargate.origins.s01e01.web.h264-tbs.mkv (69.9 MB)



General
Unique ID : 141156463082933114707715499275534754296 (0x6A31BEF3ED27737E9EC43D311CB861F8)
Complete name : ./stargate.origins.s01e01.web.h264-tbs.mkv
Format : Matroska
Format version : Version 4 / Version 2
File size : 69.9 MiB
Duration : 10 min 6 s
Overall bit rate : 968 kb/s
Encoded date : UTC 2018-02-16 20:43:00
Writing application : mkvmerge v20.0.0 ('I Am The Sun') 64-bit
Writing library : libebml v1.3.5 + libmatroska v1.4.8

Video
ID : 1
Format : AVC
Format/Info : Advanced Video Codec
Format profile : Baseline@L2.2
Format settings : 1 Ref Frames
Format settings, CABAC : No
Format settings, RefFrames : 1 frame
Codec ID : V_MPEG4/ISO/AVC
Duration : 10 min 5 s
Bit rate mode : Constant
Bit rate : 840 kb/s
Nominal bit rate : 900 kb/s
Width : 640 pixels
Height : 320 pixels
Display aspect ratio : 2.000
Frame rate mode : Constant
Frame rate : 23.976 (24000/1001) FPS
Standard : NTSC
Color space : YUV
Chroma subsampling : 4:2:0
Bit depth : 8 bits
Scan type : Progressive
Bits/(Pixel*Frame) : 0.171
Stream size : 60.7 MiB (87%)
Default : Yes
Forced : No
Color range : Limited
Color primaries : BT.709
Transfer characteristics : BT.709
Matrix coefficients : BT.709

Audio
ID : 2
Format : AAC
Format/Info : Advanced Audio Codec
Format profile : LC
Codec ID : A_AAC-2
Duration : 10 min 5 s
Bit rate : 126 kb/s
Channel(s) : 2 channels
Channel positions : Front: L R
Sampling rate : 44.1 kHz
Frame rate : 43.066 FPS (1024 SPF)
Compression mode : Lossy
Delay relative to video : -36 ms
Stream size : 9.07 MiB (13%)
Default : Yes
Forced : No





Stargate Origins S01E01


Stargate Origins S01E01


Stargate Origins S01E01


Stargate Origins S01E01


Stargate Origins S01E01

All episodes