Featured TV Shows


Stargate Origins S01E02

Posted By: Tavaz
1080p (FullHD) / WEB-DL IMDb
Stargate Origins S01E02

Stargate Origins S01E02
WEB-DL | MOV | 1920x960 | H264 @ 3600 kbps | AAC @ 125 kbps | 8 min 13 s | 219 MiB

Follow Catherine Langford, the young woman who witnessed her father uncover the Stargate in Giza in 1928, as she embarks on an unexpected adventure to unlock the mystery of what lies beyond the Stargate in order to save Earth from unimaginable darkness.

Stargate.Origins.S01E02.1080p.WEB-DL.AAC2.0.H264-BTN.mkv (219.5 MB)



General
Complete name : ./Stargate.Origins.S01E02.1080p.WEB-DL.AAC2.0.H264-BTN.mkv
Format : MPEG-4
Format profile : Base Media
Codec ID : isom (isom/iso2/avc1/mp41)
File size : 219 MiB
Duration : 8 min 13 s
Overall bit rate mode : Constant
Overall bit rate : 3 730 kb/s
Writing application : Lavf57.67.100
FileExtension_Invalid : mov mp4 m4v m4a m4b m4p 3ga 3gpa 3gpp 3gp 3gpp2 3g2 k3g jpm jpx mqv ismv isma ismt f4a f4b f4v

Video
ID : 1
Format : AVC
Format/Info : Advanced Video Codec
Format profile : Baseline@L4
Format settings : 1 Ref Frames
Format settings, CABAC : No
Format settings, RefFrames : 1 frame
Codec ID : avc1
Codec ID/Info : Advanced Video Coding
Duration : 8 min 13 s
Bit rate mode : Constant
Bit rate : 3 600 kb/s
Width : 1 920 pixels
Height : 960 pixels
Display aspect ratio : 2.000
Frame rate mode : Variable
Frame rate : 23.976 (24000/1001) FPS
Minimum frame rate : 23.974 FPS
Maximum frame rate : 23.981 FPS
Standard : NTSC
Color space : YUV
Chroma subsampling : 4:2:0
Bit depth : 8 bits
Scan type : Progressive
Bits/(Pixel*Frame) : 0.081
Stream size : 212 MiB (96%)
Color range : Limited
Color primaries : BT.709
Transfer characteristics : BT.709
Matrix coefficients : BT.709

Audio
ID : 2
Format : AAC
Format/Info : Advanced Audio Codec
Format profile : LC
Codec ID : mp4a-40-2
Duration : 8 min 13 s
Bit rate mode : Constant
Bit rate : 126 kb/s
Channel(s) : 2 channels
Channel positions : Front: L R
Sampling rate : 44.1 kHz
Frame rate : 43.066 FPS (1024 SPF)
Compression mode : Lossy
Stream size : 7.39 MiB (3%)
Default : Yes
Alternate group : 1





Stargate Origins S01E02


Stargate Origins S01E02


Stargate Origins S01E02


Stargate Origins S01E02


Stargate Origins S01E02

All episodes