Featured TV Shows


Stargate Origins S01E02

Posted By: Tavaz
720p (HD) / WEB-DL IMDb
Stargate Origins S01E02

Stargate Origins S01E02
WEB-DL | MKV | 1280x640 | English | H264 @ 2033 kbps | AAC @ 125 kbps | 8 min 13 s | 127 MiB
Subtitles: English

Follow Catherine Langford, the young woman who witnessed her father uncover the Stargate in Giza in 1928, as she embarks on an unexpected adventure to unlock the mystery of what lies beyond the Stargate in order to save Earth from unimaginable darkness.

Stargate.Origins.S01E02.Episode.2.720p.WEB-DL.AAC2.0.H.264-AJP69.mkv (127.2 MB)



General
Unique ID : 202480730242892633752230187245366023036 (0x98545EC2633448EE8C4910FE7B3E137C)
Complete name : ./Stargate.Origins.S01E02.Episode.2.720p.WEB-DL.AAC2.0.H.264-AJP69.mkv
Format : Matroska
Format version : Version 4 / Version 2
File size : 127 MiB
Duration : 8 min 13 s
Overall bit rate : 2 161 kb/s
Encoded date : UTC 2018-02-15 04:32:13
Writing application : mkvmerge v18.0.0 ('Apricity') 64-bit
Writing library : libebml v1.3.5 + libmatroska v1.4.8

Video
ID : 1
Format : AVC
Format/Info : Advanced Video Codec
Format profile : Baseline@L3.1
Format settings : 1 Ref Frames
Format settings, CABAC : No
Format settings, RefFrames : 1 frame
Codec ID : V_MPEG4/ISO/AVC
Duration : 8 min 13 s
Bit rate mode : Constant
Bit rate : 2 033 kb/s
Nominal bit rate : 2 200 kb/s
Width : 1 280 pixels
Height : 640 pixels
Display aspect ratio : 2.000
Frame rate mode : Constant
Frame rate : 23.976 (24000/1001) FPS
Standard : NTSC
Color space : YUV
Chroma subsampling : 4:2:0
Bit depth : 8 bits
Scan type : Progressive
Bits/(Pixel*Frame) : 0.104
Stream size : 120 MiB (94%)
Default : Yes
Forced : No
Color range : Limited
Color primaries : BT.709
Transfer characteristics : BT.709
Matrix coefficients : BT.709

Audio
ID : 2
Format : AAC
Format/Info : Advanced Audio Codec
Format profile : LC
Codec ID : A_AAC-2
Duration : 8 min 13 s
Bit rate : 126 kb/s
Channel(s) : 2 channels
Channel positions : Front: L R
Sampling rate : 44.1 kHz
Frame rate : 43.066 FPS (1024 SPF)
Compression mode : Lossy
Delay relative to video : -36 ms
Stream size : 7.39 MiB (6%)
Language : English
Default : Yes
Forced : No

Text
ID : 3
Format : UTF-8
Codec ID : S_TEXT/UTF8
Codec ID/Info : UTF-8 Plain Text
Duration : 7 min 27 s
Bit rate : 59 b/s
Count of elements : 133
Stream size : 3.23 KiB (0%)
Language : English
Default : No
Forced : No





Stargate Origins S01E02


Stargate Origins S01E02


Stargate Origins S01E02


Stargate Origins S01E02


Stargate Origins S01E02

All episodes