Featured TV Shows


Stargate Origins S01E03

Posted By: Tavaz
720p (HD) / WEB-DL IMDb
Stargate Origins S01E03

Stargate Origins S01E03
WEB-DL | MKV | 1280x640 | English | H264 @ 2092 kbps | AAC @ 125 kbps | 14 min 50 s | 206 MiB
Subtitles: English

Follow Catherine Langford, the young woman who witnessed her father uncover the Stargate in Giza in 1928, as she embarks on an unexpected adventure to unlock the mystery of what lies beyond the Stargate in order to save Earth from unimaginable darkness.

Stargate.Origins.S01E03.Episode.3.720p.WEB-DL.AAC2.0.H.264-AJP69.mkv (206.0 MB)



General
Unique ID : 195141816377930174873201544716609134240 (0x92CEF25EA13EBAF6AE50284FC69C1EA0)
Complete name : ./Stargate.Origins.S01E03.Episode.3.720p.WEB-DL.AAC2.0.H.264-AJP69.mkv
Format : Matroska
Format version : Version 4 / Version 2
File size : 206 MiB
Duration : 14 min 50 s
Overall bit rate : 1 940 kb/s
Encoded date : UTC 2018-02-15 04:32:23
Writing application : mkvmerge v18.0.0 ('Apricity') 64-bit
Writing library : libebml v1.3.5 + libmatroska v1.4.8

Video
ID : 1
Format : AVC
Format/Info : Advanced Video Codec
Format profile : Baseline@L3.1
Format settings : 1 Ref Frames
Format settings, CABAC : No
Format settings, RefFrames : 1 frame
Codec ID : V_MPEG4/ISO/AVC
Duration : 12 min 58 s
Bit rate mode : Constant
Bit rate : 2 092 kb/s
Nominal bit rate : 2 200 kb/s
Width : 1 280 pixels
Height : 640 pixels
Display aspect ratio : 2.000
Frame rate mode : Constant
Frame rate : 23.976 (24000/1001) FPS
Standard : NTSC
Color space : YUV
Chroma subsampling : 4:2:0
Bit depth : 8 bits
Scan type : Progressive
Bits/(Pixel*Frame) : 0.107
Stream size : 194 MiB (94%)
Default : Yes
Forced : No
Color range : Limited
Color primaries : BT.709
Transfer characteristics : BT.709
Matrix coefficients : BT.709

Audio
ID : 2
Format : AAC
Format/Info : Advanced Audio Codec
Format profile : LC
Codec ID : A_AAC-2
Duration : 12 min 58 s
Bit rate : 126 kb/s
Channel(s) : 2 channels
Channel positions : Front: L R
Sampling rate : 44.1 kHz
Frame rate : 43.066 FPS (1024 SPF)
Compression mode : Lossy
Delay relative to video : -36 ms
Stream size : 11.7 MiB (6%)
Language : English
Default : Yes
Forced : No

Text
ID : 3
Format : UTF-8
Codec ID : S_TEXT/UTF8
Codec ID/Info : UTF-8 Plain Text
Duration : 12 min 49 s
Bit rate : 46 b/s
Count of elements : 167
Stream size : 4.39 KiB (0%)
Language : English
Default : No
Forced : No





Stargate Origins S01E03


Stargate Origins S01E03


Stargate Origins S01E03


Stargate Origins S01E03


Stargate Origins S01E03

All episodes