Featured TV Shows


Stargate Origins S01E07

Posted By: Tavaz
720p (HD) / WEB-DL IMDb
Stargate Origins S01E07

Stargate Origins S01E07
WEB-DL | MKV | 1280x640 | English | H264 @ 1425 kbps | AAC @ 125 kbps | 11 min 23 s | 127 MiB
Subtitles: English

Follow Catherine Langford, the young woman who witnessed her father uncover the Stargate in Giza in 1928, as she embarks on an unexpected adventure to unlock the mystery of what lies beyond the Stargate in order to save Earth from unimaginable darkness.

Stargate.Origins.S01E07.Episode.7.720p.WEB-DL.AAC2.0.H.264-AJP69.mkv (126.7 MB)



General
Unique ID : 3071322621655917178351074075888052364 (0x24F83E57F294FFBA005880C1CCFE88C)
Complete name : ./Stargate.Origins.S01E07.Episode.7.720p.WEB-DL.AAC2.0.H.264-AJP69.mkv
Format : Matroska
Format version : Version 4 / Version 2
File size : 127 MiB
Duration : 11 min 23 s
Overall bit rate : 1 554 kb/s
Encoded date : UTC 2018-03-02 04:15:21
Writing application : mkvmerge v21.0.0 ('Tardigrades Will Inherit The Earth') 64-bit
Writing library : libebml v1.3.5 + libmatroska v1.4.8

Video
ID : 1
Format : AVC
Format/Info : Advanced Video Codec
Format profile : Baseline@L3.1
Format settings : 1 Ref Frames
Format settings, CABAC : No
Format settings, RefFrames : 1 frame
Codec ID : V_MPEG4/ISO/AVC
Duration : 11 min 23 s
Bit rate mode : Constant
Bit rate : 1 426 kb/s
Nominal bit rate : 1 500 kb/s
Width : 1 280 pixels
Height : 640 pixels
Display aspect ratio : 2.000
Frame rate mode : Constant
Frame rate : 23.976 (24000/1001) FPS
Standard : NTSC
Color space : YUV
Chroma subsampling : 4:2:0
Bit depth : 8 bits
Scan type : Progressive
Bits/(Pixel*Frame) : 0.073
Stream size : 116 MiB (92%)
Default : Yes
Forced : No
Color range : Limited
Color primaries : BT.709
Transfer characteristics : BT.709
Matrix coefficients : BT.709

Audio
ID : 2
Format : AAC
Format/Info : Advanced Audio Codec
Format profile : LC
Codec ID : A_AAC-2
Duration : 11 min 23 s
Bit rate : 126 kb/s
Channel(s) : 2 channels
Channel positions : Front: L R
Sampling rate : 44.1 kHz
Frame rate : 43.066 FPS (1024 SPF)
Compression mode : Lossy
Delay relative to video : -36 ms
Stream size : 10.2 MiB (8%)
Language : English
Default : Yes
Forced : No

Text
ID : 3
Format : UTF-8
Codec ID : S_TEXT/UTF8
Codec ID/Info : UTF-8 Plain Text
Duration : 10 min 19 s
Bit rate : 50 b/s
Count of elements : 155
Stream size : 3.83 KiB (0%)
Language : English
Default : No
Forced : No





Stargate Origins S01E07


Stargate Origins S01E07


Stargate Origins S01E07


Stargate Origins S01E07


Stargate Origins S01E07

All episodes