Index
# A B C D E F G H I J K L M N O P Q R S T U V W Y Z
Tags
Language
Tags

Featured TV Shows


Station 19 S02E01

Posted By: Tavaz
1080p (FullHD) / WEBRip IMDb
Station 19 S02E01

Station 19 S02E01
WEBRip | MKV | 1920x1080 | null | H264 @ 9684 kbps | E-AC-3 @ 640 kbps | 42 min 18 s | 3.11 GiB
Subtitles: English
Genre: Drama

A group of heroic firefighters at Seattle Fire Station 19—from captain to newest recruit—risk their lives and hearts both in the line of duty and off the clock. These brave men and women are like family, literally and figuratively, and together they put their own lives in jeopardy as first responders to save the lives of others.

d9ed2fef6b3b45078d1e50f6ddc7fabd.mkv (3.1 GB)



General
Unique ID : 210197030183365925933748592703955448322 (0x9E2279B8155FDFAADE838F6D754AB202)
Complete name : ./d9ed2fef6b3b45078d1e50f6ddc7fabd.mkv
Format : Matroska
Format version : Version 4 / Version 2
File size : 3.11 GiB
Duration : 42 min 18 s
Overall bit rate : 10.5 Mb/s
Movie name : Station 19 S02E01
Writing application : Lavf57.72.101
Writing library : Lavf57.72.101
ErrorDetectionType : Per level 1

Video
ID : 1
Format : AVC
Format/Info : Advanced Video Codec
Format profile : High@L4
Format settings : CABAC / 4 Ref Frames
Format settings, CABAC : Yes
Format settings, RefFrames : 4 frames
Codec ID : V_MPEG4/ISO/AVC
Duration : 42 min 18 s
Bit rate : 9 684 kb/s
Width : 1 920 pixels
Height : 1 080 pixels
Display aspect ratio : 16:9
Frame rate mode : Constant
Frame rate : 23.976 (24000/1001) FPS
Color space : YUV
Chroma subsampling : 4:2:0
Bit depth : 8 bits
Scan type : Progressive
Bits/(Pixel*Frame) : 0.195
Stream size : 2.86 GiB (92%)
Default : Yes
Forced : No
Color range : Limited
Color primaries : BT.709
Transfer characteristics : BT.709
Matrix coefficients : BT.709

Audio
ID : 2
Format : E-AC-3
Format/Info : Enhanced Audio Coding 3
Format settings, Endianness : Big
Codec ID : A_EAC3
Duration : 42 min 18 s
Bit rate mode : Constant
Bit rate : 640 kb/s
Channel(s) : 6 channels
Channel positions : Front: L C R, Side: L R, LFE
Sampling rate : 48.0 kHz
Frame rate : 187.500 FPS (256 SPF)
Bit depth : 32 bits
Compression mode : Lossy
Stream size : 194 MiB (6%)
Title : English
Language : null
Service kind : Complete Main
Default : Yes
Forced : No

Text
ID : 3
Format : UTF-8
Codec ID : S_TEXT/UTF8
Codec ID/Info : UTF-8 Plain Text
Title : English [CC]
Language : English
Default : No
Forced : No





Station 19 S02E01


Station 19 S02E01


Station 19 S02E01


Station 19 S02E01


Station 19 S02E01

All episodes