Index
# A B C D E F G H I J K L M N O P Q R S T U V W Y Z
Tags
Language
Tags

Featured TV Shows


Station 19 S02E01

Posted By: Tavaz
SD / HDTV IMDb
Station 19 S02E01

Station 19 S02E01
HDTV | MKV | 1280x720 | English | H264 @ 2539 kbps | E-AC-3 @ 640 kbps | 41 min 50 s | 952 MiB
Subtitles: English
Genre: Drama

A group of heroic firefighters at Seattle Fire Station 19—from captain to newest recruit—risk their lives and hearts both in the line of duty and off the clock. These brave men and women are like family, literally and figuratively, and together they put their own lives in jeopardy as first responders to save the lives of others.

Station.19.S02E03.HDTV.x264-SVA.mkv (310.3 MB)
Station.19.S02E04.HDTV.x264-SVA.mkv (381.6 MB)
Station.19.S02E03.HDTV.x264-SVA-dut.srt (70.3 KB)
Station.19.S02E04.HDTV.x264-SVA-dut.srt (72.6 KB)
Station.19.S02E02.HDTV.x264-SVA-dut.srt (67.6 KB)
Station.19.S02E01.HDTV.x264-SVA-dut.srt (67.3 KB)
Station.19.S02E07.AMZN.WEB-DL.DDP5.1.H.264-NTb.mkv (952.2 MB)
Station.19.S02E07.AMZN.WEB-DL.DDP5.1.H.264-NTb-nl.srt (71.2 KB)
Station.19.S02E05.HDTV.x264-SVA.mkv (292.9 MB)
Station.19.S02E06.HDTV.x264-CRAVERS.mkv (337.8 MB)
Station.19.S02E01.HDTV.x264-SVA.mkv (345.8 MB)
Station.19.S02E06.HDTV.x264-CRAVERS-nl.srt (72.7 KB)
Station.19.S02E05.HDTV.x264-SVA-nl.srt (73.1 KB)
Station.19.S02E02.HDTV.x264-SVA.mkv (350.0 MB)



General
Unique ID : 300746838790421860685928962634735061779 (0xE241BBF7D95FD1C6EC0837762A128B13)
Complete name : ./Station.19.S02E07.AMZN.WEB-DL.DDP5.1.H.264-NTb.mkv
Format : Matroska
Format version : Version 4 / Version 2
File size : 952 MiB
Duration : 41 min 50 s
Overall bit rate : 3 181 kb/s
Encoded date : UTC 2018-11-21 13:45:24
Writing application : mkvmerge v19.0.0 ('Brave Captain') 64-bit
Writing library : libebml v1.3.5 + libmatroska v1.4.8

Video
ID : 1
Format : AVC
Format/Info : Advanced Video Codec
Format profile : High@L3.1
Format settings : CABAC / 5 Ref Frames
Format settings, CABAC : Yes
Format settings, RefFrames : 5 frames
Codec ID : V_MPEG4/ISO/AVC
Duration : 41 min 50 s
Bit rate : 2 539 kb/s
Width : 1 280 pixels
Height : 720 pixels
Display aspect ratio : 16:9
Frame rate mode : Constant
Frame rate : 23.976 (24000/1001) FPS
Color space : YUV
Chroma subsampling : 4:2:0
Bit depth : 8 bits
Scan type : Progressive
Bits/(Pixel*Frame) : 0.115
Stream size : 760 MiB (80%)
Default : Yes
Forced : No
Color range : Limited
Color primaries : BT.709
Transfer characteristics : BT.709
Matrix coefficients : BT.709

Audio
ID : 2
Format : E-AC-3
Format/Info : Enhanced Audio Coding 3
Format settings, Endianness : Big
Codec ID : A_EAC3
Duration : 41 min 50 s
Bit rate mode : Constant
Bit rate : 640 kb/s
Channel(s) : 6 channels
Channel positions : Front: L C R, Side: L R, LFE
Sampling rate : 48.0 kHz
Frame rate : 187.500 FPS (256 SPF)
Compression mode : Lossy
Stream size : 192 MiB (20%)
Language : English
Service kind : Complete Main
Default : Yes
Forced : No

Text
ID : 3
Format : UTF-8
Codec ID : S_TEXT/UTF8
Codec ID/Info : UTF-8 Plain Text
Duration : 41 min 40 s
Bit rate : 110 b/s
Count of elements : 1122
Stream size : 33.6 KiB (0%)
Title : SDH
Language : English
Default : No
Forced : No





Station 19 S02E01


Station 19 S02E01


Station 19 S02E01


Station 19 S02E01


Station 19 S02E01

All episodes