Index
# A B C D E F G H I J K L M N O P Q R S T U V W Y Z
Tags
Language
Tags

Featured TV Shows


Seattle Firefighters - Die jungen Helden S02E04

Posted By: Tavaz
1080p (FullHD) / WEBRip IMDb
Seattle Firefighters - Die jungen Helden S02E04

Seattle Firefighters - Die jungen Helden S02E04
WEB-DL | MKV | 1920x1080 | English / Deutsch | H264 @ 9361 kbps | E-AC-3 @ 640 kbps | 41 min 29 s | 3.08 GiB
Subtitles: English, Deutsch
Genre: Drama


Viele Jahre hat Captain Pruitt Herrera die Feuerwache „Station 19“ in Seattle geleitet. Doch nach einem gefährlichen Wohnungsbrand gibt er die Leitung der Wache aus gesundheitlichen Gründen ab. Pikanterweise bewirbt sich nicht nur Herreras Tochter Andy, die am Arbeitsplatz ihres Vaters groß geworden ist, um den Posten, sondern auch ihr Kollege – und Liebhaber – Jack Gibson. Andy bekommt den Zuschlag, und Jack muss damit leben.

Station.19.S02E04.GERMAN.DL.1080p.WEB.H264-TSCC.mkv (3.1 GB)



General
Unique ID : 184212095035871286794357001353089624470 (0x8A95F580AEB88F3FA135E5A2F525A996)
Complete name : ./Station.19.S02E04.GERMAN.DL.1080p.WEB.H264-TSCC.mkv
Format : Matroska
Format version : Version 4 / Version 2
File size : 3.08 GiB
Duration : 41 min 29 s
Overall bit rate : 10.6 Mb/s
Writing application : mkvmerge v63.0.0 ('Everything') 64-bit
Writing library : libebml v1.4.2 + libmatroska v1.6.4

Video
ID : 1
Format : AVC
Format/Info : Advanced Video Codec
Format profile : High@L4
Format settings : CABAC / 4 Ref Frames
Format settings, CABAC : Yes
Format settings, RefFrames : 4 frames
Codec ID : V_MPEG4/ISO/AVC
Duration : 41 min 29 s
Bit rate mode : Constant
Bit rate : 9 362 kb/s
Nominal bit rate : 10 000 kb/s
Width : 1 920 pixels
Height : 1 080 pixels
Display aspect ratio : 16:9
Frame rate mode : Constant
Frame rate : 25.000 FPS
Color space : YUV
Chroma subsampling : 4:2:0
Bit depth : 8 bits
Scan type : Progressive
Bits/(Pixel*Frame) : 0.181
Stream size : 2.71 GiB (88%)
Default : Yes
Forced : No
Color range : Limited
Color primaries : BT.709
Transfer characteristics : BT.709
Matrix coefficients : BT.709

Audio #1
ID : 2
Format : E-AC-3
Format/Info : Enhanced Audio Coding 3
Format settings, Endianness : Big
Codec ID : A_EAC3
Duration : 41 min 29 s
Bit rate mode : Constant
Bit rate : 640 kb/s
Channel(s) : 6 channels
Channel positions : Front: L C R, Side: L R, LFE
Sampling rate : 48.0 kHz
Frame rate : 187.500 FPS (256 SPF)
Compression mode : Lossy
Stream size : 190 MiB (6%)
Language : German
Service kind : Complete Main
Default : Yes
Forced : No

Audio #2
ID : 3
Format : E-AC-3
Format/Info : Enhanced Audio Coding 3
Format settings, Endianness : Big
Codec ID : A_EAC3
Duration : 41 min 29 s
Bit rate mode : Constant
Bit rate : 640 kb/s
Channel(s) : 6 channels
Channel positions : Front: L C R, Side: L R, LFE
Sampling rate : 48.0 kHz
Frame rate : 187.500 FPS (256 SPF)
Compression mode : Lossy
Stream size : 190 MiB (6%)
Language : English
Service kind : Complete Main
Default : No
Forced : No

Text #1
ID : 4
Format : UTF-8
Codec ID : S_TEXT/UTF8
Codec ID/Info : UTF-8 Plain Text
Duration : 40 min 37 s
Bit rate : 102 b/s
Count of elements : 720
Stream size : 30.6 KiB (0%)
Language : German
Default : No
Forced : No

Text #2
ID : 5
Format : UTF-8
Codec ID : S_TEXT/UTF8
Codec ID/Info : UTF-8 Plain Text
Duration : 40 min 45 s
Bit rate : 119 b/s
Count of elements : 1151
Stream size : 35.8 KiB (0%)
Language : English
Default : No
Forced : No

Menu
00:00:00.000 : en:Szene 1
00:00:05.000 : en:Was bisher geschah
00:00:38.000 : en:Szene 3
00:02:09.000 : en:Titelsequenz
00:02:16.000 : en:Szene 5
00:09:12.000 : en:Szene 6
00:15:04.000 : en:Szene 7
00:18:22.000 : en:Szene 8
00:24:03.000 : en:Szene 9
00:28:27.000 : en:Szene 10
00:40:46.000 : en:Abspann





Seattle Firefighters - Die jungen Helden S02E04


Seattle Firefighters - Die jungen Helden S02E04


Seattle Firefighters - Die jungen Helden S02E04


Seattle Firefighters - Die jungen Helden S02E04


Seattle Firefighters - Die jungen Helden S02E04

All episodes