Index
# A B C D E F G H I J K L M N O P Q R S T U V W Y Z
Tags
Language
Tags

Featured TV Shows


Station 19 S02E05

Posted By: Tavaz
720p (HD) / HDTV IMDb
Station 19 S02E05

Station 19 S02E05
HDTV | MKV | 1280x720 | English | H264 @ 2783 kbps | MPEG Audio @ 160 kbps | 40 min 55 s | 862 MiB
Genre: Drame


Les aventures d'un groupe de pompiers héroïques de Seattle risquant tous les jours leurs vies, tout en gérant les complications de la sphère privée.

Spin-off de Grey's Anatomy.

Station.19.S02E06.FRENCH.720p.HDTV.x264-HuSSLe.mkv (862.2 MB)
Station.19.S02E05.FRENCH.720p.HDTV.x264-HuSSLe.mkv (729.5 MB)



General
Unique ID : 238394044894657683113498236478937900589 (0xB35905E0E0DCEC15460600B94E40262D)
Complete name : ./Station.19.S02E06.FRENCH.720p.HDTV.x264-HuSSLe/Station.19.S02E06.FRENCH.720p.HDTV.x264-HuSSLe.mkv
Format : Matroska
Format version : Version 4 / Version 2
File size : 862 MiB
Duration : 40 min 55 s
Overall bit rate : 2 945 kb/s
Encoded date : UTC 2019-06-21 22:22:03
Writing application : mkvmerge v34.0.0 ('Sight and Seen') 64-bit
Writing library : libebml v1.3.7 + libmatroska v1.5.0

Video
ID : 1
Format : AVC
Format/Info : Advanced Video Codec
Format profile : High@L4.1
Format settings : CABAC / 5 Ref Frames
Format settings, CABAC : Yes
Format settings, RefFrames : 5 frames
Codec ID : V_MPEG4/ISO/AVC
Duration : 40 min 55 s
Bit rate : 2 783 kb/s
Width : 1 280 pixels
Height : 720 pixels
Display aspect ratio : 16:9
Frame rate mode : Constant
Frame rate : 25.000 FPS
Color space : YUV
Chroma subsampling : 4:2:0
Bit depth : 8 bits
Scan type : Progressive
Bits/(Pixel*Frame) : 0.121
Stream size : 815 MiB (95%)
Writing library : x264 core 157 r2969 d4099dd
Encoding settings : cabac=1 / ref=5 / deblock=1:0:0 / analyse=0x3:0x113 / me=umh / subme=9 / psy=1 / psy_rd=1.00:0.00 / mixed_ref=1 / me_range=16 / chroma_me=1 / trellis=2 / 8x8dct=1 / cqm=0 / deadzone=21,11 / fast_pskip=1 / chroma_qp_offset=-2 / threads=12 / lookahead_threads=1 / sliced_threads=0 / nr=0 / decimate=1 / interlaced=0 / bluray_compat=0 / constrained_intra=0 / bframes=3 / b_pyramid=2 / b_adapt=1 / b_bias=0 / direct=3 / weightb=1 / open_gop=0 / weightp=2 / keyint=250 / keyint_min=25 / scenecut=40 / intra_refresh=0 / rc_lookahead=50 / rc=crf / mbtree=1 / crf=18.0 / qcomp=0.60 / qpmin=0 / qpmax=69 / qpstep=4 / ip_ratio=1.40 / aq=1:1.00
Default : Yes
Forced : No
Color range : Limited
Matrix coefficients : BT.709

Audio
ID : 2
Format : MPEG Audio
Format version : Version 1
Format profile : Layer 2
Codec ID : A_MPEG/L2
Codec ID/Hint : MP2
Duration : 40 min 55 s
Bit rate mode : Constant
Bit rate : 160 kb/s
Channel(s) : 2 channels
Sampling rate : 48.0 kHz
Frame rate : 41.666 FPS (1152 SPF)
Compression mode : Lossy
Stream size : 46.8 MiB (5%)
Default : Yes
Forced : No





Station 19 S02E05


Station 19 S02E05


Station 19 S02E05


Station 19 S02E05


Station 19 S02E05

All episodes