Index
# A B C D E F G H I J K L M N O P Q R S T U V W Y Z
Tags
Language
Tags

Featured TV Shows


Seattle Firefighters - Die jungen Helden S02E07

Posted By: Tavaz
1080p (FullHD) / WEBRip IMDb
Seattle Firefighters - Die jungen Helden S02E07

Seattle Firefighters - Die jungen Helden S02E07
WEB-DL | MKV | 1920x1080 | English / Deutsch | H264 @ 9206 kbps | E-AC-3 @ 640 kbps | 40 min 20 s | 2.96 GiB
Subtitles: English, Deutsch
Genre: Drama


Viele Jahre hat Captain Pruitt Herrera die Feuerwache „Station 19“ in Seattle geleitet. Doch nach einem gefährlichen Wohnungsbrand gibt er die Leitung der Wache aus gesundheitlichen Gründen ab. Pikanterweise bewirbt sich nicht nur Herreras Tochter Andy, die am Arbeitsplatz ihres Vaters groß geworden ist, um den Posten, sondern auch ihr Kollege – und Liebhaber – Jack Gibson. Andy bekommt den Zuschlag, und Jack muss damit leben.

Station.19.S02E07.GERMAN.DL.1080p.WEB.H264-TSCC.mkv (3.0 GB)



General
Unique ID : 151147458014942607523569343270805522040 (0x71B5F108D309422D615FD3E1A84B4678)
Complete name : ./Station.19.S02E07.GERMAN.DL.1080p.WEB.H264-TSCC.mkv
Format : Matroska
Format version : Version 4 / Version 2
File size : 2.96 GiB
Duration : 40 min 20 s
Overall bit rate : 10.5 Mb/s
Writing application : mkvmerge v63.0.0 ('Everything') 64-bit
Writing library : libebml v1.4.2 + libmatroska v1.6.4

Video
ID : 1
Format : AVC
Format/Info : Advanced Video Codec
Format profile : High@L4
Format settings : CABAC / 4 Ref Frames
Format settings, CABAC : Yes
Format settings, RefFrames : 4 frames
Codec ID : V_MPEG4/ISO/AVC
Duration : 40 min 20 s
Bit rate mode : Constant
Bit rate : 9 206 kb/s
Nominal bit rate : 10 000 kb/s
Width : 1 920 pixels
Height : 1 080 pixels
Display aspect ratio : 16:9
Frame rate mode : Constant
Frame rate : 25.000 FPS
Color space : YUV
Chroma subsampling : 4:2:0
Bit depth : 8 bits
Scan type : Progressive
Bits/(Pixel*Frame) : 0.178
Stream size : 2.59 GiB (88%)
Default : Yes
Forced : No
Color range : Limited
Color primaries : BT.709
Transfer characteristics : BT.709
Matrix coefficients : BT.709

Audio #1
ID : 2
Format : E-AC-3
Format/Info : Enhanced Audio Coding 3
Format settings, Endianness : Big
Codec ID : A_EAC3
Duration : 40 min 20 s
Bit rate mode : Constant
Bit rate : 640 kb/s
Channel(s) : 6 channels
Channel positions : Front: L C R, Side: L R, LFE
Sampling rate : 48.0 kHz
Frame rate : 187.500 FPS (256 SPF)
Compression mode : Lossy
Stream size : 185 MiB (6%)
Language : German
Service kind : Complete Main
Default : Yes
Forced : No

Audio #2
ID : 3
Format : E-AC-3
Format/Info : Enhanced Audio Coding 3
Format settings, Endianness : Big
Codec ID : A_EAC3
Duration : 40 min 20 s
Bit rate mode : Constant
Bit rate : 640 kb/s
Channel(s) : 6 channels
Channel positions : Front: L C R, Side: L R, LFE
Sampling rate : 48.0 kHz
Frame rate : 187.500 FPS (256 SPF)
Compression mode : Lossy
Stream size : 185 MiB (6%)
Language : English
Service kind : Complete Main
Default : No
Forced : No

Text #1
ID : 4
Format : UTF-8
Codec ID : S_TEXT/UTF8
Codec ID/Info : UTF-8 Plain Text
Duration : 39 min 23 s
Bit rate : 89 b/s
Count of elements : 648
Stream size : 25.8 KiB (0%)
Language : German
Default : No
Forced : No

Text #2
ID : 5
Format : UTF-8
Codec ID : S_TEXT/UTF8
Codec ID/Info : UTF-8 Plain Text
Duration : 40 min 2 s
Bit rate : 114 b/s
Count of elements : 1135
Stream size : 33.5 KiB (0%)
Language : English
Default : No
Forced : No

Menu
00:00:00.000 : en:Szene 1
00:00:05.000 : en:Was bisher geschah
00:00:41.000 : en:Szene 3
00:03:52.000 : en:Titelsequenz
00:03:59.000 : en:Szene 5
00:09:43.000 : en:Szene 6
00:14:22.000 : en:Szene 7
00:18:13.000 : en:Szene 8
00:25:18.000 : en:Szene 9
00:30:39.000 : en:Szene 10
00:31:19.000 : en:Szene 11
00:39:38.000 : en:Abspann





Seattle Firefighters - Die jungen Helden S02E07


Seattle Firefighters - Die jungen Helden S02E07


Seattle Firefighters - Die jungen Helden S02E07


Seattle Firefighters - Die jungen Helden S02E07


Seattle Firefighters - Die jungen Helden S02E07

All episodes